<svg version="1.0" width="290" height="415" viewBox="0 0 800 600" overflow="visible" xml:space="preserve" xmlns="http://www.w3.org/2000/svg"><font horiz-adv-x="2048"><font-face font-family="Arial-BoldMT" units-per-em="2048" underline-position="-217" underline-thickness="215"/><glyph horiz-adv-x="569"/><glyph unicode="!" horiz-adv-x="682" d="m257 378-73 744v344h304v-344l-72-744M196 0v281h281V0z"/><glyph unicode="&quot;" horiz-adv-x="971" d="m165 945-53 273v248h306v-248l-46-273m244 0-53 273v248h306v-248l-46-273z"/><glyph unicode="#" horiz-adv-x="1139" d="M154 365H18v220h180l60 295H18v221h285l79 390h224l-79-390h221l77 390h232l-80-390h138V880H932l-60-295h243V365H827L748-25H525l77 390H380L301-25H75m408 905-59-295h222l58 295z"/><glyph unicode="$" horiz-adv-x="1139" d="M489 217v419c-131 37-226 94-287 170-61 75-92 167-92 275 0 109 35 201 104 276 69 74 160 117 275 128v99h145v-99c106-13 190-49 253-108 63-60 103-140 120-240l-253-33c-15 79-55 132-120 160V873c160-43 269-99 327-168s87-158 87-266c0-121-36-222-109-305S764 1 634-18v-187H489v182C374-9 280 34 208 106S90 280 70 411l261 28c11-53 31-99 60-138s62-67 98-84m0 1050c-39-13-71-36-94-68s-35-67-35-106c0-35 11-68 32-98 21-31 54-55 97-74m145-718c50 9 91 33 122 70s47 80 47 130c0 45-13 83-39 116-27 32-70 57-130 74z"/><glyph unicode="%" horiz-adv-x="1821" d="M89 1104c0 131 29 229 87 292 57 63 135 95 234 95 102 0 182-31 240-94 57-63 86-161 86-293 0-131-29-229-86-292-58-63-136-95-235-95-102 0-182 32-239 95-58 63-87 160-87 292m219 2c0-95 11-159 33-192 17-24 40-36 69-36 30 0 53 12 70 36 21 33 32 97 32 192s-11 159-32 191c-17 25-40 37-70 37-29 0-52-12-69-36-22-33-33-97-33-192M624-56H416l781 1547h202M1078 329c0 131 29 229 87 292 57 63 136 95 236 95 101 0 180-32 238-95 57-63 86-161 86-292 0-132-29-230-86-293-58-63-136-95-235-95-102 0-182 32-239 95-58 63-87 161-87 293m219 1c0-95 11-159 33-191 17-25 40-37 69-37 30 0 53 12 69 36 22 33 33 97 33 192s-11 159-32 192c-17 24-40 36-70 36s-53-12-69-36c-22-33-33-97-33-192z"/><glyph unicode="&amp;" horiz-adv-x="1479" d="M1446 179 1276-38c-83 41-163 97-240 168-59-53-122-93-189-118S701-26 609-26c-183 0-320 51-412 154-71 79-107 171-107 274 0 94 28 179 84 254s140 140 251 195c-50 59-88 116-113 170-25 53-38 104-38 152 0 89 36 164 107 226 71 61 172 92 303 92 127 0 226-32 297-97s107-144 107-237c0-59-18-116-53-169S928 874 821 807l204-269c24 43 45 98 62 167l254-58c-25-90-47-156-66-197-19-42-39-77-60-105 31-29 72-61 122-96 49-35 86-59 109-70M681 976l76 58c56 43 84 86 84 129 0 36-13 67-40 92s-64 38-110 38c-45 0-80-11-105-33-25-23-38-49-38-78 0-35 21-77 64-126m-41-385c-65-33-113-72-145-118s-48-93-48-141c0-61 20-110 60-148 39-39 92-58 159-58 44 0 86 9 127 26s85 46 133 86z"/><glyph unicode="'" horiz-adv-x="487" d="m145 945-53 273v248h306v-248l-46-273z"/><glyph unicode="(" horiz-adv-x="682" d="M613-431H420C318-277 240-117 187 49s-80 327-80 482c0 193 33 375 99 547 57 149 130 287 218 413h192c-91-202-154-374-188-515-35-142-52-292-52-451 0-109 10-221 31-336 20-115 48-224 83-327 23-68 64-166 123-293z"/><glyph unicode=")" horiz-adv-x="682" d="M69-431c55 119 94 210 117 273s44 136 63 219 34 161 43 236c9 74 14 150 14 228 0 159-17 309-51 451-34 141-97 313-188 515h191c101-143 179-295 235-456 55-161 83-324 83-489 0-139-22-289-66-448-50-179-132-355-247-529z"/><glyph unicode="*" horiz-adv-x="797" d="M245 792 94 909c48 54 98 106 150 155 21 20 34 33 39 38-17 3-64 14-143 33-57 14-94 24-112 31l59 176c87-35 165-74 234-117-16 109-24 197-24 266h178c0-49-9-138-27-268 13 5 42 18 86 39 60 27 115 51 166 70l53-181c-74-17-160-33-257-49l120-135c24-27 43-50 57-67L520 799l-135 223c-41-72-87-149-140-230z"/><glyph unicode="+" horiz-adv-x="1196" d="M469 211v381H85v263h384v381h256V855h385V592H725V211z"/><glyph unicode="," horiz-adv-x="569" d="M140 281h281V80c0-81-7-145-21-192s-40-90-79-127-89-67-149-88l-55 116c57 19 97 44 121 77s37 77 38 134H140z"/><glyph unicode="-" horiz-adv-x="682" d="M115 391v281h552V391z"/><glyph unicode="." horiz-adv-x="569" d="M147 0v281h281V0z"/><glyph unicode="/" horiz-adv-x="569" d="m-3-25 363 1516h211L204-25z"/><glyph unicode="0" horiz-adv-x="1139" d="M562 1472c142 0 253-51 333-152 95-120 143-319 143-597 0-277-48-477-144-598C815 25 704-25 562-25c-143 0-258 55-345 165C130 249 86 445 86 726c0 276 48 475 144 596 79 100 190 150 332 150m0-233c-34 0-64-11-91-32-27-22-47-61-62-117-19-73-29-195-29-367s9-290 26-354c17-65 39-108 66-129 26-21 56-32 90-32s64 11 91 33c27 21 47 60 62 116 19 72 29 194 29 366s-9 290-26 355c-17 64-39 107-65 129-27 21-57 32-91 32z"/><glyph unicode="1" horiz-adv-x="1139" d="M806 0H525v1059c-103-96-224-167-363-213v255c73 24 153 70 239 137s145 145 177 234h228z"/><glyph unicode="2" horiz-adv-x="1139" d="M1036 261V0H51c11 99 43 192 96 281 53 88 159 205 316 351 127 118 204 198 233 240 39 58 58 115 58 172 0 63-17 111-50 145-34 33-81 50-140 50s-105-18-140-53-55-94-60-176l-280 28c17 155 69 266 157 333s198 101 330 101c145 0 258-39 341-117s124-175 124-291c0-66-12-129-35-188-24-60-62-123-113-188-34-43-95-106-184-187S559 366 536 339c-24-27-43-53-58-78z"/><glyph unicode="3" horiz-adv-x="1139" d="m77 389 272 33c9-69 32-122 70-159s84-55 138-55c58 0 107 22 147 66 39 44 59 103 59 178 0 71-19 127-57 168s-84 62-139 62c-36 0-79-7-129-21l31 229c76-2 134 15 174 50s60 81 60 139c0 49-15 89-44 118s-68 44-117 44c-48 0-89-17-123-50s-55-82-62-146l-259 44c18 89 45 160 82 213 36 53 87 94 152 125 65 30 137 45 218 45 138 0 249-44 332-132 69-72 103-153 103-244 0-129-70-231-211-308 84-18 151-58 202-121 50-63 75-138 75-227 0-129-47-238-141-329S699-25 559-25C426-25 316 13 229 90 142 166 91 266 77 389z"/><glyph unicode="4" horiz-adv-x="1139" d="M638 0v295H38v246l636 931h236V542h182V295H910V0M638 542v501L301 542z"/><glyph unicode="5" horiz-adv-x="1139" d="m91 377 280 29c8-63 32-113 71-150s85-56 136-56c59 0 108 24 149 72 41 47 61 119 61 215 0 90-20 158-60 203-41 45-93 67-158 67-81 0-153-36-217-107l-228 33 144 763h743v-263H482l-44-249c63 31 127 47 192 47 125 0 230-45 317-136s130-208 130-353c0-121-35-228-105-323C877 40 744-25 575-25 440-25 329 11 244 84S108 254 91 377z"/><glyph unicode="6" horiz-adv-x="1139" d="m1039 1107-272-30c-7 56-24 97-52 124s-64 40-109 40c-59 0-109-27-150-80s-67-164-78-333c70 83 157 124 261 124 117 0 218-45 302-134 83-89 125-205 125-346 0-150-44-270-132-361S733-25 595-25c-148 0-270 58-365 173S87 451 87 713c0 269 50 462 149 581s228 178 387 178c111 0 204-31 277-93 73-63 119-153 139-272M402 494c0-91 21-162 63-211 42-50 90-75 144-75 52 0 95 20 130 61s52 107 52 200c0 95-19 165-56 210-37 44-84 66-140 66-54 0-100-21-137-63-37-43-56-105-56-188z"/><glyph unicode="7" horiz-adv-x="1139" d="M87 1185v261h961v-204c-79-78-160-190-242-336S662 605 619 441c-43-165-65-312-64-441H284c5 203 47 409 126 620s184 399 316 565z"/><glyph unicode="8" horiz-adv-x="1139" d="M328 791c-73 31-125 73-158 127-33 53-50 112-50 176 0 109 38 200 115 271 76 71 184 107 325 107 139 0 248-36 325-107s115-162 115-271c0-68-18-128-53-181s-85-94-149-122c81-33 143-80 186-143 42-63 63-135 63-217 0-135-43-245-129-330C831 16 716-26 573-26 440-26 329 9 240 79 135 162 83 275 83 419c0 79 20 152 59 219 39 66 101 117 186 153m58 283c0-56 16-100 48-131 31-31 73-47 126-47s96 16 128 48c32 31 48 75 48 131 0 53-16 95-47 127-32 31-74 47-126 47-54 0-97-16-129-48s-48-74-48-127m-26-628c0-77 20-138 60-181 39-43 89-65 148-65 58 0 106 21 144 63 38 41 57 101 57 180 0 69-19 124-58 166-39 41-88 62-147 62-69 0-120-24-153-71-34-47-51-99-51-154z"/><glyph unicode="9" horiz-adv-x="1139" d="m93 339 272 30c7-55 24-96 52-123s65-40 111-40c58 0 107 27 148 80s67 164 78 332c-71-82-159-123-265-123-115 0-215 45-298 134-84 89-126 204-126 347 0 149 44 269 133 360 88 91 200 136 337 136 149 0 271-57 366-172s143-305 143-568c0-268-50-461-149-580S666-26 507-26C392-26 300 5 229 66S113 218 93 339m636 614c0 91-21 161-62 211-42 50-90 75-145 75-52 0-95-20-129-61-35-41-52-109-52-202 0-95 19-164 56-208 37-45 84-67 140-67 54 0 100 21 137 64s55 105 55 188z"/><glyph unicode=":" horiz-adv-x="682" d="M201 781v281h281V781M201 0v281h281V0z"/><glyph unicode=";" horiz-adv-x="682" d="M193 781v281h281V781M193 281h281V80c0-81-7-145-21-192s-40-90-79-127-89-67-149-88l-55 116c57 19 97 45 121 78s37 78 38 133H193z"/><glyph unicode="&lt;" horiz-adv-x="1196" d="M1100 167 95 604v242l1005 435V996L399 728l701-278z"/><glyph unicode="=" horiz-adv-x="1196" d="M85 816v258h1025V816M85 372v259h1025V372z"/><glyph unicode="&gt;" horiz-adv-x="1196" d="M95 166v283l702 276L95 998v281l1006-435V604z"/><glyph unicode="?" horiz-adv-x="1251" d="M751 378H496c-1 37-1 59-1 67 0 83 14 151 41 204s82 113 164 180 131 110 147 131c25 33 37 69 37 108 0 55-22 102-65 141-44 39-103 58-177 58-71 0-131-20-179-61s-81-103-99-186l-258 32c7 119 58 221 153 304 94 83 218 125 371 125 161 0 290-42 385-126 95-85 143-183 143-295 0-62-17-121-52-176S996 753 881 658c-59-49-96-89-110-119-15-30-21-84-20-161M496 0v281h281V0z"/><glyph unicode="@" horiz-adv-x="1997" d="M1777 19h213c-67-135-169-241-307-318-158-88-351-132-578-132-220 0-410 37-570 112-160 74-279 184-357 329S61 312 61 483c0 187 44 362 133 524 89 161 210 283 364 364s330 121 528 121c168 0 317-33 448-98s231-158 300-278c69-121 103-252 103-395 0-170-52-324-157-461C1649 87 1480 0 1275 0c-55 0-97 10-125 29s-47 48-56 85C1015 38 925 0 822 0 711 0 620 38 547 115c-73 76-110 177-110 304 0 157 44 300 132 429 107 157 243 236 410 236 119 0 206-45 263-136l25 111h264l-151-717c-9-45-14-75-14-88 0-17 4-29 12-37 7-9 16-13 27-13 32 0 73 19 124 58 68 51 123 119 165 204s63 174 63 265c0 164-59 301-178 412-119 110-284 165-497 165-181 0-334-37-459-110-126-74-221-178-284-311-64-134-96-273-96-418 0-141 36-269 107-384s170-199 299-252c128-53 275-80 440-80 159 0 296 22 411 67 115 44 207 110 277 199M696 430c0-85 17-147 52-187 34-40 76-60 127-60 38 0 74 9 107 28 25 13 50 34 75 63 35 41 66 100 92 178 25 78 38 151 38 218 0 75-17 133-52 174-35 40-80 60-133 60-57 0-110-22-159-66-49-45-85-108-110-190s-37-155-37-218z"/><glyph unicode="A" horiz-adv-x="1479" d="M1471 0h-322l-128 333H435L314 0H0l571 1466h313m42-886-202 544-198-544z"/><glyph unicode="B" horiz-adv-x="1479" d="M150 1466h586c116 0 203-5 260-14 57-10 108-30 153-61s82-71 112-122 45-109 45-172c0-69-18-132-55-189s-88-100-151-129c89-26 158-70 206-133s72-136 72-221c0-67-15-131-46-194s-74-114-127-151c-54-38-120-61-199-70-49-5-168-9-357-10H150m296 1222V883h194c115 0 187 2 215 5 51 6 91 24 120 53s43 67 43 114c0 45-12 82-37 111-25 28-63 45-112 51-29 3-114 5-253 5M446 639V247h274c107 0 174 3 203 9 44 8 80 28 108 59 27 31 41 72 41 124 0 44-11 81-32 112s-52 53-92 67c-41 14-128 21-263 21z"/><glyph unicode="C" horiz-adv-x="1479" d="m1087 539 287-91c-44-160-117-279-219-356C1052 14 922-25 765-25c-195 0-355 67-480 200S97 489 97 720c0 244 63 434 189 569s292 202 497 202c179 0 325-53 437-159 67-63 117-153 150-270l-293-70c-17 76-53 136-108 180s-122 66-201 66c-109 0-197-39-264-117-68-78-102-204-102-379 0-185 33-317 100-396s153-118 260-118c79 0 146 25 203 75s97 129 122 236z"/><glyph unicode="D" horiz-adv-x="1479" d="M148 1466h541c122 0 215-9 279-28 86-25 160-70 221-135s108-144 140-237c32-94 48-210 48-347 0-121-15-225-45-312-37-107-89-193-157-259-51-50-121-89-208-117C902 10 814 0 705 0H148m296 1218V247h221c83 0 142 5 179 14 48 12 88 32 120 61 31 29 57 76 77 142 20 65 30 155 30 268s-10 200-30 261-48 108-84 142-82 57-137 69c-41 9-122 14-243 14z"/><glyph unicode="E" horiz-adv-x="1366" d="M149 0v1466h1087v-248H445V893h736V646H445V247h819V0z"/><glyph unicode="F" horiz-adv-x="1251" d="M151 0v1466h1005v-248H447V871h612V623H447V0z"/><glyph unicode="G" horiz-adv-x="1593" d="M831 539v247h638V202c-62-60-152-113-269-158-118-46-237-69-358-69-153 0-287 32-401 97-114 64-200 156-257 276-57 119-86 249-86 390 0 153 32 288 96 407s158 210 281 273c94 49 211 73 351 73 182 0 324-38 427-114 102-77 168-182 197-317l-294-55c-21 72-59 129-116 171-57 41-129 62-214 62-129 0-232-41-308-123-77-82-115-204-115-365 0-174 39-304 116-391s179-131 304-131c62 0 124 12 187 37 62 24 115 53 160 88v186z"/><glyph unicode="H" horiz-adv-x="1479" d="M150 0v1466h296V889h580v577h296V0h-296v641H446V0z"/><glyph unicode="I" horiz-adv-x="569" d="M140 0v1466h296V0z"/><glyph unicode="J" horiz-adv-x="1139" d="M678 1466h295V538c0-121-11-215-32-280-29-85-81-154-156-205-75-52-175-78-298-78-145 0-256 41-334 122S36 296 35 453l279 32c3-84 16-143 37-178 32-53 81-79 146-79 66 0 113 19 140 57 27 37 41 115 41 234z"/><glyph unicode="K" horiz-adv-x="1479" d="M153 0v1466h296V815l598 651h398L893 895 1475 0h-383L689 688 449 443V0z"/><glyph unicode="L" horiz-adv-x="1251" d="M157 0v1454h296V247h736V0z"/><glyph unicode="M" horiz-adv-x="1706" d="M145 0v1466h443L854 466l263 1000h444V0h-275v1154L995 0H710L420 1154V0z"/><glyph unicode="N" horiz-adv-x="1479" d="M152 0v1466h288l600-979v979h275V0h-297L427 956V0z"/><glyph unicode="O" horiz-adv-x="1593" d="M89 724c0 149 22 275 67 376 33 75 79 142 137 201 57 59 120 103 189 132 91 39 197 58 316 58 216 0 389-67 519-201 129-134 194-320 194-559 0-237-64-422-193-555C1189 42 1017-25 802-25c-218 0-391 67-520 200S89 491 89 724m305 10c0-166 38-292 115-377 77-86 174-129 292-129s215 43 291 128c75 85 113 212 113 382 0 168-37 293-110 376-74 83-172 124-294 124s-220-42-295-125c-75-84-112-210-112-379z"/><glyph unicode="P" horiz-adv-x="1366" d="M149 0v1466h475c180 0 297-7 352-22 84-22 154-70 211-143 57-74 85-169 85-286 0-90-16-166-49-227s-74-109-124-144c-51-35-102-59-154-70-71-14-173-21-307-21H445V0m0 1218V802h162c117 0 195 8 234 23s70 39 93 72c22 33 33 71 33 114 0 53-16 97-47 132s-71 56-119 65c-35 7-106 10-213 10z"/><glyph unicode="Q" horiz-adv-x="1593" d="M1329 186c73-52 152-93 237-124l-109-209c-45 13-88 32-131 55-9 5-75 48-197 130-96-42-202-63-319-63-225 0-402 66-529 199C153 307 89 493 89 733c0 239 64 426 192 559s302 199 521 199c217 0 390-66 517-199s191-320 191-559c0-127-18-238-53-334-27-73-69-144-128-213m-238 167c38 45 67 99 86 162s28 136 28 218c0 169-37 296-112 380-75 83-172 125-293 125s-218-42-293-126-113-210-113-379c0-171 38-299 113-384s169-128 284-128c43 0 83 7 121 21-60 39-121 70-183 92l83 169c97-33 190-83 279-150z"/><glyph unicode="R" horiz-adv-x="1479" d="M150 0v1466h623c157 0 271-13 342-39 71-27 127-74 170-141s64-144 64-231c0-110-32-201-97-272-65-72-161-117-290-136 64-37 117-78 159-123 41-45 97-124 168-238L1468 0h-354L900 319c-76 114-128 186-156 216-28 29-58 50-89 61s-81 16-149 16h-60V0m0 846h219c142 0 231 6 266 18s63 33 83 62 30 66 30 110c0 49-13 89-39 120-27 30-64 49-112 57-24 3-96 5-216 5H446z"/><glyph unicode="S" horiz-adv-x="1366" d="m74 477 288 28c17-97 53-168 106-213s124-68 214-68c95 0 167 20 216 61 48 40 72 87 72 141 0 35-10 64-30 89-21 24-56 45-107 63-35 12-114 33-237 64-159 39-270 88-334 145-90 81-135 179-135 295 0 75 21 145 64 210 42 65 103 114 183 148 79 34 175 51 288 51 184 0 323-40 416-121s141-188 146-323l-296-13c-13 75-40 130-81 163-42 33-105 49-188 49-86 0-153-18-202-53-31-23-47-53-47-91 0-35 15-64 44-89 37-31 128-64 272-98s251-69 320-105c69-37 123-86 162-149s58-141 58-234c0-84-23-163-70-236S1083 63 998 28C913-8 806-26 679-26c-185 0-328 43-427 129-99 85-159 210-178 374z"/><glyph unicode="T" horiz-adv-x="1251" d="M479 0v1218H44v248h1165v-248H775V0z"/><glyph unicode="U" horiz-adv-x="1479" d="M147 1466h296V672c0-126 4-208 11-245 13-60 43-108 91-144 47-37 112-55 195-55 84 0 147 17 190 52 43 34 68 76 77 126s13 133 13 249v811h296V696c0-176-8-300-24-373s-45-134-88-184-101-90-173-119c-72-30-166-45-282-45-140 0-246 16-318 49-73 32-130 74-172 126-42 51-70 105-83 162-19 84-29 208-29 372z"/><glyph unicode="V" horiz-adv-x="1366" d="M523 0-1 1466h321L691 381l359 1085h314L839 0z"/><glyph unicode="W" horiz-adv-x="1933" d="M357 0 7 1466h303L531 459l268 1007h352l257-1024 225 1024h298L1575 0h-314L969 1096 678 0z"/><glyph unicode="X" horiz-adv-x="1366" d="m0 0 501 765-454 701h346l294-471 288 471h343L862 754 1363 0h-357L681 507 355 0z"/><glyph unicode="Y" horiz-adv-x="1366" d="M534 0v617L-3 1466h347l345-580 338 580h341L829 615V0z"/><glyph unicode="Z" horiz-adv-x="1251" d="M22 0v267l770 951H109v248h1073v-230L379 247h834V0z"/><glyph unicode="[" horiz-adv-x="682" d="M146-413v1879h498v-221H413V-192h231v-221z"/><glyph unicode="\" horiz-adv-x="569" d="M-3 1491h207L571-25H360z"/><glyph unicode="]" horiz-adv-x="682" d="M536 1466V-413H38v221h231v1439H38v219z"/><glyph unicode="^" horiz-adv-x="1196" d="m115 692 376 799h223l366-799H796l-198 489-197-489z"/><glyph unicode="_" horiz-adv-x="1139" d="M-19-405v182h1168v-182z"/><glyph unicode="`" horiz-adv-x="682" d="M495 1192H318L42 1491h315z"/><glyph unicode="a" horiz-adv-x="1139" d="m357 738-255 46c29 103 78 179 148 228s174 74 312 74c125 0 219-15 280-44 61-30 105-68 130-113 25-46 37-130 37-252l-3-328c0-93 5-162 14-206 9-45 25-92 50-143H792c-7 19-16 46-27 83-5 17-8 28-10 33-48-47-99-82-154-105S488-24 426-24C317-24 231 6 168 65S73 199 73 290c0 60 14 114 43 161s69 83 121 108c51 25 126 46 223 65 131 25 222 48 273 69v28c0 54-13 93-40 116s-77 34-151 34c-50 0-89-10-117-29-28-20-51-55-68-104m376-228c-36-12-93-26-171-43s-129-33-153-49c-37-26-55-59-55-99 0-39 15-73 44-102s67-43 112-43c51 0 99 17 145 50 34 25 56 56 67 93 7 24 11 70 11 137z"/><glyph unicode="b" horiz-adv-x="1251" d="M135 0v1466h281V938c87 99 189 148 308 148 129 0 236-47 321-140 85-94 127-229 127-404 0-181-43-321-129-419C956 25 851-24 728-24c-61 0-120 15-179 46-59 30-110 75-153 134V0m18 554c0-110 17-191 52-244 49-75 113-112 194-112 62 0 115 27 159 80 43 53 65 136 65 250 0 121-22 209-66 263-44 53-100 80-169 80-67 0-123-26-168-78-45-53-67-132-67-239z"/><glyph unicode="c" horiz-adv-x="1139" d="m1073 748-277-50c-9 55-30 97-63 125s-76 42-129 42c-70 0-126-24-167-72-42-49-63-130-63-243 0-126 21-215 64-267 42-52 99-78 170-78 53 0 97 15 131 46 34 30 58 82 72 156l276-47c-29-127-84-222-165-287S732-24 595-24c-155 0-279 49-371 147-93 98-139 234-139 407 0 175 46 312 139 410 93 97 218 146 376 146 129 0 232-28 309-83 76-56 131-141 164-255z"/><glyph unicode="d" horiz-adv-x="1251" d="M1121 0H860v156C817 95 766 50 707 21 648-9 588-24 528-24c-122 0-226 49-313 148-87 98-131 235-131 411 0 180 42 317 127 411 85 93 192 140 321 140 119 0 221-49 308-148v528h281M371 554c0-113 16-195 47-246 45-73 109-110 190-110 65 0 120 28 165 83s68 137 68 246c0 122-22 210-66 264-44 53-100 80-169 80-67 0-122-26-167-79s-68-133-68-238z"/><glyph unicode="e" horiz-adv-x="1139" d="m762 338 280-47c-36-103-93-181-170-234-78-54-175-81-292-81-185 0-321 60-410 181-70 97-105 219-105 366 0 176 46 314 138 414 92 99 208 149 349 149 158 0 283-52 374-156 91-105 135-265 131-480H353c2-83 25-148 68-194 43-47 97-70 162-70 44 0 81 12 111 36s53 63 68 116m16 284c-2 81-23 143-63 186-40 42-89 63-146 63-61 0-112-22-152-67s-60-105-59-182z"/><glyph unicode="f" horiz-adv-x="682" d="M24 1062h156v80c0 89 10 156 29 200s54 80 105 108c51 27 115 41 193 41 80 0 158-12 235-36l-38-196c-45 11-88 16-129 16s-70-9-87-28c-18-19-27-56-27-110v-75h210V841H461V0H180v841H24z"/><glyph unicode="g" horiz-adv-x="1251" d="m121-70 321-39c5-37 18-63 37-77 27-20 69-30 126-30 73 0 128 11 165 33 25 15 43 38 56 71 9 23 13 66 13 129v155C755 57 649 0 521 0 378 0 265 60 182 181c-65 95-98 214-98 356 0 178 43 314 129 408 85 94 192 141 319 141 131 0 240-58 325-173v149h263V109c0-125-10-219-31-281s-50-111-87-146-87-63-149-83c-63-20-142-30-237-30-180 0-308 31-383 93-75 61-113 139-113 234 0 9 0 21 1 34m251 623c0-113 22-195 66-247 43-53 97-79 161-79 69 0 127 27 174 81 47 53 71 133 71 238 0 110-23 192-68 245s-103 80-172 80c-67 0-123-26-166-78-44-53-66-133-66-240z"/><glyph unicode="h" horiz-adv-x="1251" d="M427 1466V927c91 106 199 159 325 159 65 0 123-12 175-36s91-55 118-92c26-37 44-79 54-124 9-45 14-116 14-211V0H832v561c0 111-5 182-16 212s-29 54-56 72c-27 17-61 26-102 26-47 0-88-11-125-34s-63-57-80-102c-17-46-26-114-26-203V0H146v1466z"/><glyph unicode="i" horiz-adv-x="569" d="M147 1206v260h281v-260M147 0v1062h281V0z"/><glyph unicode="j" horiz-adv-x="569" d="M141 1206v260h281v-260m0-144V33c0-135-9-231-26-286-18-56-52-100-102-131-51-31-115-47-193-47-28 0-58 3-90 8-33 5-68 12-105 22l49 240c13-3 26-5 38-6 11-2 22-3 32-3 29 0 52 6 71 19 18 12 30 27 36 44s9 69 9 156v1013z"/><glyph unicode="k" horiz-adv-x="1139" d="M137 0v1466h281V688l329 374h346L730 674 1119 0H816L549 477 418 340V0z"/><glyph unicode="l" horiz-adv-x="569" d="M147 0v1466h281V0z"/><glyph unicode="m" horiz-adv-x="1821" d="M126 1062h259V917c93 113 203 169 331 169 68 0 127-14 177-42s91-70 123-127c47 57 97 99 151 127s112 42 173 42c78 0 144-16 198-47 54-32 94-79 121-140 19-45 29-119 29-220V0h-281v607c0 105-10 173-29 204-26 40-66 60-120 60-39 0-76-12-111-36s-60-59-75-105c-15-47-23-120-23-220V0H768v582c0 103-5 170-15 200s-25 52-46 67-50 22-86 22c-43 0-82-12-117-35s-59-57-74-101-23-117-23-219V0H126z"/><glyph unicode="n" horiz-adv-x="1251" d="M1113 0H832v542c0 115-6 189-18 223-12 33-31 59-58 78s-60 28-98 28c-49 0-92-13-131-40s-65-62-79-106c-15-44-22-125-22-244V0H145v1062h261V906c93 120 209 180 350 180 62 0 119-11 170-33 51-23 90-51 117-86 26-35 44-74 55-118 10-44 15-107 15-189z"/><glyph unicode="o" horiz-adv-x="1251" d="M82 546c0 93 23 184 69 271s111 154 196 200c84 46 178 69 282 69 161 0 292-52 395-156 103-105 154-237 154-396 0-161-52-294-155-399C919 29 788-24 631-24c-97 0-190 22-278 66-89 44-156 109-202 194S82 424 82 546m288-15c0-105 25-186 75-242s112-84 185-84 135 28 185 84c49 56 74 137 74 244 0 104-25 184-74 240-50 56-112 84-185 84s-135-28-185-84-75-137-75-242z"/><glyph unicode="p" horiz-adv-x="1251" d="M139 1062h262V906c34 53 80 97 138 130s122 50 193 50c123 0 228-48 314-145s129-231 129-404c0-177-43-315-130-413C958 25 853-24 730-24c-59 0-112 12-159 35-48 23-98 63-151 120v-535H139m278 953c0-119 24-207 71-264s105-86 173-86c65 0 120 26 163 79 43 52 65 138 65 257 0 111-22 194-67 248s-100 81-166 81c-69 0-126-26-171-79s-68-132-68-236z"/><glyph unicode="q" horiz-adv-x="1251" d="M841-404v534c-37-47-82-85-137-112-55-28-114-42-177-42-121 0-220 45-298 136C137 218 91 362 91 543c0 171 43 304 130 400 86 95 193 143 321 143 71 0 132-15 184-45 51-30 97-75 137-136v157h259V-404M850 544c0 109-22 190-66 243-45 53-100 79-167 79-68 0-125-27-170-81-46-54-69-140-69-257s22-201 66-252c44-52 98-78 163-78s121 29 170 87 73 144 73 259z"/><glyph unicode="r" horiz-adv-x="797" d="M416 0H135v1062h261V911c45 71 85 118 121 141 35 23 76 34 121 34 64 0 126-18 185-53l-87-245c-47 31-91 46-132 46-39 0-73-11-100-32-27-22-49-61-64-118-16-57-24-175-24-356z"/><glyph unicode="s" horiz-adv-x="1139" d="m48 303 282 43c12-55 36-96 73-124 37-29 88-43 154-43 73 0 127 13 164 40 25 19 37 44 37 75 0 21-7 39-20 53-14 13-45 26-94 37-227 50-370 96-431 137-84 57-126 137-126 239 0 92 36 169 109 232s185 94 338 94c145 0 253-24 324-71s119-117 146-210l-265-49c-11 41-33 73-64 95-32 22-77 33-136 33-74 0-127-10-159-31-21-15-32-34-32-57 0-20 9-37 28-51 25-19 113-45 263-79 149-34 254-76 313-125 59-50 88-120 88-209 0-97-41-181-122-251S716-24 557-24C412-24 298 5 214 64 129 123 74 202 48 303z"/><glyph unicode="t" horiz-adv-x="682" d="M634 1062V838H442V410c0-87 2-137 6-151 3-15 12-27 25-36s28-14 47-14c26 0 64 9 113 27l24-218c-65-28-139-42-222-42-51 0-96 9-137 26s-70 39-89 66-33 63-40 109c-6 33-9 99-9 198v463H31v224h129v211l282 164v-375z"/><glyph unicode="u" horiz-adv-x="1251" d="M846 0v159c-39-57-89-101-152-134S564-24 494-24c-71 0-135 16-192 47s-98 75-123 132-38 135-38 235v672h281V574c0-149 5-241 16-274 10-34 29-61 56-80 27-20 62-30 104-30 48 0 91 13 129 40 38 26 64 59 78 98s21 134 21 286v448h281V0z"/><glyph unicode="v" horiz-adv-x="1139" d="M439 0 11 1062h295l200-542 58-181c15 46 25 76 29 91 9 30 19 60 30 90l202 542h289L692 0z"/><glyph unicode="w" horiz-adv-x="1593" d="M345 0 9 1062h273l199-696 183 696h271l177-696 203 696h277L1251 0H981L798 683 618 0z"/><glyph unicode="x" horiz-adv-x="1139" d="m12 0 383 547-367 515h343l188-292 198 292h330L727 559 1120 0H775L559 329 341 0z"/><glyph unicode="y" horiz-adv-x="1139" d="M14 1062h299l254-754 248 754h291L731 40l-67-185c-25-62-48-109-70-142-23-33-48-59-77-79-29-21-65-37-107-48-43-11-91-17-144-17-54 0-107 6-159 17L82-194c44-9 84-13 119-13 65 0 114 19 145 58 31 38 55 87 72 146z"/><glyph unicode="z" horiz-adv-x="1024" d="M34 0v219l398 457c65 75 114 128 145 159-33-2-76-3-129-4l-375-2v233h878V863L545 395 402 240c78 5 126 7 145 7h435V0z"/><glyph unicode="{" horiz-adv-x="797" d="M60 410v240c49 3 85 10 110 22s46 32 64 61c18 28 30 63 37 106 5 32 8 88 8 167 0 129 6 220 18 271s34 92 65 123 77 55 137 73c41 12 105 18 192 18h53v-239c-74 0-121-4-142-12-21-9-37-21-47-38s-15-47-15-88c0-42-3-122-9-239-3-66-12-119-26-160s-32-75-53-102c-22-27-55-54-100-83 39-23 72-49 97-79 25-31 44-68 57-111s22-101 26-174c5-111 7-181 7-212 0-44 5-75 16-92s27-30 49-39c21-9 68-14 140-14v-240h-53c-90 0-159 7-207 22-48 14-88 38-121 71s-56 75-67 124-17 126-17 231c0 123-5 202-16 239-15 53-37 92-66 115-30 23-76 36-137 39z"/><glyph unicode="|" horiz-adv-x="573" d="M176-431v1922h223V-431z"/><glyph unicode="}" horiz-adv-x="797" d="M729 410c-49-3-85-10-110-22s-46-32-63-60c-18-29-31-64-38-107-5-32-8-87-8-166 0-129-6-220-17-271-12-51-34-92-65-123s-77-56-138-74c-41-12-105-18-192-18H45v240c71 0 118 5 140 14s38 22 49 39c10 17 15 45 16 86 0 41 3 118 8 233 3 69 12 125 27 167 15 41 34 77 59 106 24 29 55 54 93 76-49 32-85 63-108 94-31 44-53 100-64 168-7 47-13 149-16 308-1 50-5 83-13 100-9 17-24 30-45 39-22 9-71 13-146 13v239h53c90 0 159-7 207-21s88-38 121-71c33-34 55-75 67-124 11-49 17-127 17-232 0-122 5-202 15-239 15-53 37-91 67-114s76-37 137-40z"/><glyph unicode="~" horiz-adv-x="1196" d="M67 519v259c85 92 183 138 296 138 42 0 81-4 116-12 35-9 99-31 191-68 91-37 153-56 186-56 37 0 81 12 130 35s96 59 143 109V654c-31-32-73-62-128-90s-112-42-171-42c-33 0-66 4-97 12-32 8-82 27-151 57-103 45-183 67-242 67-93 0-184-46-273-139z"/><glyph unicode="Ä" horiz-adv-x="1479" d="M1471 0h-322l-128 333H435L314 0H0l571 1466h313m42-886-202 544-198-544m-143 970v241h241v-241m189 0v241h242v-241z"/><glyph unicode="Å" horiz-adv-x="1479" d="M1471 0h-322l-128 333H435L314 0H0l571 1466h313m42-886-202 544-198-544m395 982c0-54-19-100-57-138-39-39-85-58-139-58s-100 19-138 58c-39 38-58 84-58 138s19 100 58 139c38 38 84 57 138 57s100-19 139-57c38-38 57-84 57-139m-107 0c0 25-9 46-26 63s-38 26-63 26-46-9-63-26-26-38-26-63 9-46 26-63 38-26 63-26 46 9 63 26 26 38 26 63z"/><glyph unicode="Ç" horiz-adv-x="1479" d="m1087 539 287-91c-44-160-117-279-219-356C1052 14 922-25 765-25c-195 0-355 67-480 200S97 489 97 720c0 244 63 434 189 569s292 202 497 202c179 0 325-53 437-159 67-63 117-153 150-270l-293-70c-17 76-53 136-108 180s-122 66-201 66c-109 0-197-39-264-117-68-78-102-204-102-379 0-185 33-317 100-396s153-118 260-118c79 0 146 25 203 75s97 129 122 236M465-403v118c69-7 132-11 189-11 59 0 103 11 132 32 22 16 33 37 33 62 0 23-10 42-31 59s-53 25-96 25-86-7-131-20l26 99c52 18 108 27 168 27 83 0 147-18 190-55s65-81 65-134c0-59-24-106-72-143-65-50-157-75-278-75-86 0-151 5-195 16z"/><glyph unicode="É" horiz-adv-x="1366" d="M149 0v1466h1087v-248H445V893h736V646H445V247h819V0M525 1550l138 299h315l-275-299z"/><glyph unicode="Ñ" horiz-adv-x="1479" d="M152 0v1466h288l600-979v979h275V0h-297L427 956V0m93 1547H392c-1 15-1 27-1 36 0 70 17 124 51 162 34 37 78 56 131 56 23 0 45-2 65-7s57-20 110-43c53-24 94-36 124-36 21 0 39 7 54 20 14 13 23 36 27 67h130c-1-90-17-154-50-193s-76-58-128-58c-23 0-45 2-67 7-15 4-54 18-115 41s-106 35-134 35c-21 0-38-6-50-19s-18-36-19-68z"/><glyph unicode="Ö" horiz-adv-x="1593" d="M89 724c0 149 22 275 67 376 33 75 79 142 137 201 57 59 120 103 189 132 91 39 197 58 316 58 216 0 389-67 519-201 129-134 194-320 194-559 0-237-64-422-193-555C1189 42 1017-25 802-25c-218 0-391 67-520 200S89 491 89 724m305 10c0-166 38-292 115-377 77-86 174-129 292-129s215 43 291 128c75 85 113 212 113 382 0 168-37 293-110 376-74 83-172 124-294 124s-220-42-295-125c-75-84-112-210-112-379m53 816v241h241v-241m189 0v241h242v-241z"/><glyph unicode="Ü" horiz-adv-x="1479" d="M147 1466h296V672c0-126 4-208 11-245 13-60 43-108 91-144 47-37 112-55 195-55 84 0 147 17 190 52 43 34 68 76 77 126s13 133 13 249v811h296V696c0-176-8-300-24-373s-45-134-88-184-101-90-173-119c-72-30-166-45-282-45-140 0-246 16-318 49-73 32-130 74-172 126-42 51-70 105-83 162-19 84-29 208-29 372m252 866v241h241v-241m189 0v241h242v-241z"/><glyph unicode="á" horiz-adv-x="1139" d="m357 738-255 46c29 103 78 179 148 228s174 74 312 74c125 0 219-15 280-44 61-30 105-68 130-113 25-46 37-130 37-252l-3-328c0-93 5-162 14-206 9-45 25-92 50-143H792c-7 19-16 46-27 83-5 17-8 28-10 33-48-47-99-82-154-105S488-24 426-24C317-24 231 6 168 65S73 199 73 290c0 60 14 114 43 161s69 83 121 108c51 25 126 46 223 65 131 25 222 48 273 69v28c0 54-13 93-40 116s-77 34-151 34c-50 0-89-10-117-29-28-20-51-55-68-104m376-228c-36-12-93-26-171-43s-129-33-153-49c-37-26-55-59-55-99 0-39 15-73 44-102s67-43 112-43c51 0 99 17 145 50 34 25 56 56 67 93 7 24 11 70 11 137m-304 738 138 299h315l-275-299z"/><glyph unicode="à" horiz-adv-x="1139" d="m357 738-255 46c29 103 78 179 148 228s174 74 312 74c125 0 219-15 280-44 61-30 105-68 130-113 25-46 37-130 37-252l-3-328c0-93 5-162 14-206 9-45 25-92 50-143H792c-7 19-16 46-27 83-5 17-8 28-10 33-48-47-99-82-154-105S488-24 426-24C317-24 231 6 168 65S73 199 73 290c0 60 14 114 43 161s69 83 121 108c51 25 126 46 223 65 131 25 222 48 273 69v28c0 54-13 93-40 116s-77 34-151 34c-50 0-89-10-117-29-28-20-51-55-68-104m376-228c-36-12-93-26-171-43s-129-33-153-49c-37-26-55-59-55-99 0-39 15-73 44-102s67-43 112-43c51 0 99 17 145 50 34 25 56 56 67 93 7 24 11 70 11 137m-20 738H536l-276 299h315z"/><glyph unicode="â" horiz-adv-x="1139" d="m357 738-255 46c29 103 78 179 148 228s174 74 312 74c125 0 219-15 280-44 61-30 105-68 130-113 25-46 37-130 37-252l-3-328c0-93 5-162 14-206 9-45 25-92 50-143H792c-7 19-16 46-27 83-5 17-8 28-10 33-48-47-99-82-154-105S488-24 426-24C317-24 231 6 168 65S73 199 73 290c0 60 14 114 43 161s69 83 121 108c51 25 126 46 223 65 131 25 222 48 273 69v28c0 54-13 93-40 116s-77 34-151 34c-50 0-89-10-117-29-28-20-51-55-68-104m376-228c-36-12-93-26-171-43s-129-33-153-49c-37-26-55-59-55-99 0-39 15-73 44-102s67-43 112-43c51 0 99 17 145 50 34 25 56 56 67 93 7 24 11 70 11 137m-500 742 210 295h260l207-295H684l-116 149-108-149z"/><glyph unicode="ä" horiz-adv-x="1139" d="m357 738-255 46c29 103 78 179 148 228s174 74 312 74c125 0 219-15 280-44 61-30 105-68 130-113 25-46 37-130 37-252l-3-328c0-93 5-162 14-206 9-45 25-92 50-143H792c-7 19-16 46-27 83-5 17-8 28-10 33-48-47-99-82-154-105S488-24 426-24C317-24 231 6 168 65S73 199 73 290c0 60 14 114 43 161s69 83 121 108c51 25 126 46 223 65 131 25 222 48 273 69v28c0 54-13 93-40 116s-77 34-151 34c-50 0-89-10-117-29-28-20-51-55-68-104m376-228c-36-12-93-26-171-43s-129-33-153-49c-37-26-55-59-55-99 0-39 15-73 44-102s67-43 112-43c51 0 99 17 145 50 34 25 56 56 67 93 7 24 11 70 11 137m-497 796v241h241v-241m189 0v241h242v-241z"/><glyph unicode="ã" horiz-adv-x="1139" d="m357 738-255 46c29 103 78 179 148 228s174 74 312 74c125 0 219-15 280-44 61-30 105-68 130-113 25-46 37-130 37-252l-3-328c0-93 5-162 14-206 9-45 25-92 50-143H792c-7 19-16 46-27 83-5 17-8 28-10 33-48-47-99-82-154-105S488-24 426-24C317-24 231 6 168 65S73 199 73 290c0 60 14 114 43 161s69 83 121 108c51 25 126 46 223 65 131 25 222 48 273 69v28c0 54-13 93-40 116s-77 34-151 34c-50 0-89-10-117-29-28-20-51-55-68-104m376-228c-36-12-93-26-171-43s-129-33-153-49c-37-26-55-59-55-99 0-39 15-73 44-102s67-43 112-43c51 0 99 17 145 50 34 25 56 56 67 93 7 24 11 70 11 137m-378 751H227c-1 15-1 27-1 36 0 70 17 124 51 162 34 37 78 56 131 56 23 0 45-2 65-7s57-20 110-43c53-24 94-36 124-36 21 0 39 7 54 20 14 13 23 36 27 67h130c-1-90-17-154-50-193s-76-58-128-58c-23 0-45 2-67 7-15 4-54 18-115 41s-106 35-134 35c-21 0-38-6-50-19s-18-36-19-68z"/><glyph unicode="å" horiz-adv-x="1139" d="m357 738-255 46c29 103 78 179 148 228s174 74 312 74c125 0 219-15 280-44 61-30 105-68 130-113 25-46 37-130 37-252l-3-328c0-93 5-162 14-206 9-45 25-92 50-143H792c-7 19-16 46-27 83-5 17-8 28-10 33-48-47-99-82-154-105S488-24 426-24C317-24 231 6 168 65S73 199 73 290c0 60 14 114 43 161s69 83 121 108c51 25 126 46 223 65 131 25 222 48 273 69v28c0 54-13 93-40 116s-77 34-151 34c-50 0-89-10-117-29-28-20-51-55-68-104m376-228c-36-12-93-26-171-43s-129-33-153-49c-37-26-55-59-55-99 0-39 15-73 44-102s67-43 112-43c51 0 99 17 145 50 34 25 56 56 67 93 7 24 11 70 11 137m34 888c0-54-19-100-57-138-39-39-85-58-139-58s-100 19-138 58c-39 38-58 84-58 138s19 100 58 139c38 38 84 57 138 57s100-19 139-57c38-38 57-84 57-139m-107 0c0 25-9 46-26 63s-38 26-63 26-46-9-63-26-26-38-26-63 9-46 26-63 38-26 63-26 46 9 63 26 26 38 26 63z"/><glyph unicode="ç" horiz-adv-x="1139" d="m1073 748-277-50c-9 55-30 97-63 125s-76 42-129 42c-70 0-126-24-167-72-42-49-63-130-63-243 0-126 21-215 64-267 42-52 99-78 170-78 53 0 97 15 131 46 34 30 58 82 72 156l276-47c-29-127-84-222-165-287S732-24 595-24c-155 0-279 49-371 147-93 98-139 234-139 407 0 175 46 312 139 410 93 97 218 146 376 146 129 0 232-28 309-83 76-56 131-141 164-255M316-403v118c69-7 132-11 189-11 59 0 103 11 132 32 22 16 33 37 33 62 0 23-10 42-31 59s-53 25-96 25-86-7-131-20l26 99c52 18 108 27 168 27 83 0 147-18 190-55s65-81 65-134c0-59-24-106-72-143-65-50-157-75-278-75-86 0-151 5-195 16z"/><glyph unicode="é" horiz-adv-x="1139" d="m762 338 280-47c-36-103-93-181-170-234-78-54-175-81-292-81-185 0-321 60-410 181-70 97-105 219-105 366 0 176 46 314 138 414 92 99 208 149 349 149 158 0 283-52 374-156 91-105 135-265 131-480H353c2-83 25-148 68-194 43-47 97-70 162-70 44 0 81 12 111 36s53 63 68 116m16 284c-2 81-23 143-63 186-40 42-89 63-146 63-61 0-112-22-152-67s-60-105-59-182m61 570 138 299h315l-275-299z"/><glyph unicode="è" horiz-adv-x="1139" d="m762 338 280-47c-36-103-93-181-170-234-78-54-175-81-292-81-185 0-321 60-410 181-70 97-105 219-105 366 0 176 46 314 138 414 92 99 208 149 349 149 158 0 283-52 374-156 91-105 135-265 131-480H353c2-83 25-148 68-194 43-47 97-70 162-70 44 0 81 12 111 36s53 63 68 116m16 284c-2 81-23 143-63 186-40 42-89 63-146 63-61 0-112-22-152-67s-60-105-59-182m345 570H526l-276 299h315z"/><glyph unicode="ê" horiz-adv-x="1139" d="m762 338 280-47c-36-103-93-181-170-234-78-54-175-81-292-81-185 0-321 60-410 181-70 97-105 219-105 366 0 176 46 314 138 414 92 99 208 149 349 149 158 0 283-52 374-156 91-105 135-265 131-480H353c2-83 25-148 68-194 43-47 97-70 162-70 44 0 81 12 111 36s53 63 68 116m16 284c-2 81-23 143-63 186-40 42-89 63-146 63-61 0-112-22-152-67s-60-105-59-182m-135 574 210 295h260l207-295H674l-116 149-108-149z"/><glyph unicode="ë" horiz-adv-x="1139" d="m762 338 280-47c-36-103-93-181-170-234-78-54-175-81-292-81-185 0-321 60-410 181-70 97-105 219-105 366 0 176 46 314 138 414 92 99 208 149 349 149 158 0 283-52 374-156 91-105 135-265 131-480H353c2-83 25-148 68-194 43-47 97-70 162-70 44 0 81 12 111 36s53 63 68 116m16 284c-2 81-23 143-63 186-40 42-89 63-146 63-61 0-112-22-152-67s-60-105-59-182m-133 628v241h241v-241m189 0v241h242v-241z"/><glyph unicode="í" horiz-adv-x="569" d="M147 0v1062h281V0M126 1192l138 299h315l-275-299z"/><glyph unicode="ì" horiz-adv-x="569" d="M147 0v1062h281V0m2 1192H253l-276 299h315z"/><glyph unicode="î" horiz-adv-x="569" d="M147 0v1062h281V0M-51 1196l210 295h260l207-295H400l-116 149-108-149z"/><glyph unicode="ï" horiz-adv-x="569" d="M147 0v1062h281V0M-48 1250v241h241v-241m189 0v241h242v-241z"/><glyph unicode="ñ" horiz-adv-x="1251" d="M1113 0H832v542c0 115-6 189-18 223-12 33-31 59-58 78s-60 28-98 28c-49 0-92-13-131-40s-65-62-79-106c-15-44-22-125-22-244V0H145v1062h261V906c93 120 209 180 350 180 62 0 119-11 170-33 51-23 90-51 117-86 26-35 44-74 55-118 10-44 15-107 15-189m-701 545H284c-1 15-1 27-1 36 0 70 17 124 51 162 34 37 78 56 131 56 23 0 45-2 65-7s57-20 110-43c53-24 94-36 124-36 21 0 39 7 54 20 14 13 23 36 27 67h130c-1-90-17-154-50-193s-76-58-128-58c-23 0-45 2-67 7-15 4-54 18-115 41s-106 35-134 35c-21 0-38-6-50-19s-18-36-19-68z"/><glyph unicode="ó" horiz-adv-x="1251" d="M82 546c0 93 23 184 69 271s111 154 196 200c84 46 178 69 282 69 161 0 292-52 395-156 103-105 154-237 154-396 0-161-52-294-155-399C919 29 788-24 631-24c-97 0-190 22-278 66-89 44-156 109-202 194S82 424 82 546m288-15c0-105 25-186 75-242s112-84 185-84 135 28 185 84c49 56 74 137 74 244 0 104-25 184-74 240-50 56-112 84-185 84s-135-28-185-84-75-137-75-242m118 661 138 299h315l-275-299z"/><glyph unicode="ò" horiz-adv-x="1251" d="M82 546c0 93 23 184 69 271s111 154 196 200c84 46 178 69 282 69 161 0 292-52 395-156 103-105 154-237 154-396 0-161-52-294-155-399C919 29 788-24 631-24c-97 0-190 22-278 66-89 44-156 109-202 194S82 424 82 546m288-15c0-105 25-186 75-242s112-84 185-84 135 28 185 84c49 56 74 137 74 244 0 104-25 184-74 240-50 56-112 84-185 84s-135-28-185-84-75-137-75-242m401 661H594l-276 299h315z"/><glyph unicode="ô" horiz-adv-x="1251" d="M82 546c0 93 23 184 69 271s111 154 196 200c84 46 178 69 282 69 161 0 292-52 395-156 103-105 154-237 154-396 0-161-52-294-155-399C919 29 788-24 631-24c-97 0-190 22-278 66-89 44-156 109-202 194S82 424 82 546m288-15c0-105 25-186 75-242s112-84 185-84 135 28 185 84c49 56 74 137 74 244 0 104-25 184-74 240-50 56-112 84-185 84s-135-28-185-84-75-137-75-242m-79 665 210 295h260l207-295H742l-116 149-108-149z"/><glyph unicode="ö" horiz-adv-x="1251" d="M82 546c0 93 23 184 69 271s111 154 196 200c84 46 178 69 282 69 161 0 292-52 395-156 103-105 154-237 154-396 0-161-52-294-155-399C919 29 788-24 631-24c-97 0-190 22-278 66-89 44-156 109-202 194S82 424 82 546m288-15c0-105 25-186 75-242s112-84 185-84 135 28 185 84c49 56 74 137 74 244 0 104-25 184-74 240-50 56-112 84-185 84s-135-28-185-84-75-137-75-242m-87 719v241h241v-241m189 0v241h242v-241z"/><glyph unicode="õ" horiz-adv-x="1251" d="M82 546c0 93 23 184 69 271s111 154 196 200c84 46 178 69 282 69 161 0 292-52 395-156 103-105 154-237 154-396 0-161-52-294-155-399C919 29 788-24 631-24c-97 0-190 22-278 66-89 44-156 109-202 194S82 424 82 546m288-15c0-105 25-186 75-242s112-84 185-84 135 28 185 84c49 56 74 137 74 244 0 104-25 184-74 240-50 56-112 84-185 84s-135-28-185-84-75-137-75-242m43 674H285c-1 15-1 27-1 36 0 70 17 124 51 162 34 37 78 56 131 56 23 0 45-2 65-7s57-20 110-43c53-24 94-36 124-36 21 0 39 7 54 20 14 13 23 36 27 67h130c-1-90-17-154-50-193s-76-58-128-58c-23 0-45 2-67 7-15 4-54 18-115 41s-106 35-134 35c-21 0-38-6-50-19s-18-36-19-68z"/><glyph unicode="ú" horiz-adv-x="1251" d="M846 0v159c-39-57-89-101-152-134S564-24 494-24c-71 0-135 16-192 47s-98 75-123 132-38 135-38 235v672h281V574c0-149 5-241 16-274 10-34 29-61 56-80 27-20 62-30 104-30 48 0 91 13 129 40 38 26 64 59 78 98s21 134 21 286v448h281V0M482 1192l138 299h315l-275-299z"/><glyph unicode="ù" horiz-adv-x="1251" d="M846 0v159c-39-57-89-101-152-134S564-24 494-24c-71 0-135 16-192 47s-98 75-123 132-38 135-38 235v672h281V574c0-149 5-241 16-274 10-34 29-61 56-80 27-20 62-30 104-30 48 0 91 13 129 40 38 26 64 59 78 98s21 134 21 286v448h281V0M766 1192H589l-276 299h315z"/><glyph unicode="û" horiz-adv-x="1251" d="M846 0v159c-39-57-89-101-152-134S564-24 494-24c-71 0-135 16-192 47s-98 75-123 132-38 135-38 235v672h281V574c0-149 5-241 16-274 10-34 29-61 56-80 27-20 62-30 104-30 48 0 91 13 129 40 38 26 64 59 78 98s21 134 21 286v448h281V0M286 1196l210 295h260l207-295H737l-116 149-108-149z"/><glyph unicode="ü" horiz-adv-x="1251" d="M846 0v159c-39-57-89-101-152-134S564-24 494-24c-71 0-135 16-192 47s-98 75-123 132-38 135-38 235v672h281V574c0-149 5-241 16-274 10-34 29-61 56-80 27-20 62-30 104-30 48 0 91 13 129 40 38 26 64 59 78 98s21 134 21 286v448h281V0M288 1250v241h241v-241m189 0v241h242v-241z"/><glyph unicode="°" horiz-adv-x="819" d="M86 1172c0 89 31 164 94 226 62 62 137 93 225 93s163-31 226-93c62-63 93-138 93-226s-31-163-93-225c-63-63-138-94-226-94s-163 31-225 94c-63 62-94 137-94 225m166 0c0-42 15-78 45-108s66-45 108-45 78 15 108 45 45 66 45 108-15 78-45 108-66 45-108 45-78-15-108-45-45-66-45-108z"/><glyph unicode="¢" horiz-adv-x="1139" d="M744 811 562 209c15-3 30-4 45-4 53 0 96 15 131 46 34 30 58 82 72 156l276-47c-29-127-84-222-165-287S731-24 595-24c-33 0-67 2-101 7L377-403l-122 34L371 16c-92 40-163 106-212 197-50 91-75 198-75 322 0 173 46 308 139 405s218 146 375 146c30 0 61-2 94-6l113 376 123-35-112-371c126-48 211-149 256-302l-277-50c-8 48-25 86-51 113m-117 53c-9 1-17 1-24 1-71 0-127-24-168-73-42-49-63-130-63-243 0-129 25-223 76-280z"/><glyph unicode="£" horiz-adv-x="1139" d="m999 285 108-238c-38-21-82-37-131-50-50-13-98-20-145-20-60 0-140 14-240 43-100 28-174 42-222 42-81 0-164-29-249-87L13 217c75 54 130 112 163 173s49 119 49 174c0 18-1 37-4 57H13v221h157c-27 79-41 158-41 239 0 73 20 142 60 208 39 66 95 116 168 151 73 34 152 51 238 51 131 0 236-33 314-99 78-67 126-162 143-286l-271-40c-13 71-36 123-69 154s-75 47-125 47c-53 0-98-18-133-53-35-36-53-81-53-135 0-28 5-65 15-111 9-46 21-88 35-126h312V621H497c2-15 3-29 3-44 0-53-10-101-30-146s-61-103-123-176c37 19 83 28 138 28 23 0 44-1 63-4 9-1 37-8 82-19 81-21 136-31 165-31 52 0 120 19 204 56z"/><glyph unicode="•" horiz-adv-x="717" d="M657 724c0-82-29-152-86-209-58-58-128-87-209-87-82 0-152 29-209 87-58 58-87 128-87 209s29 151 87 209c57 57 127 86 209 86 81 0 151-29 209-86 57-57 86-127 86-209z"/><glyph unicode="¶" horiz-adv-x="1139" d="M635-403H392V644c-127 9-224 50-292 122S-2 933-2 1052c0 70 14 134 41 193 27 58 64 104 111 138 46 34 100 58 163 71 37 8 110 12 219 12h597v-261h-113V-403H779v1608H635z"/><glyph unicode="ß" horiz-adv-x="1251" d="M139 0v952c0 133 12 235 36 304 23 69 69 126 137 170 68 43 156 65 265 65 136 0 238-29 305-87s101-130 101-216c0-58-18-120-54-186-37-67-58-107-63-122s-8-27-8-38c0-22 8-45 25-69 11-15 51-58 120-128s116-129 140-178 36-99 36-151c0-97-33-177-100-242S927-24 824-24c-71 0-135 18-193 55-58 36-102 81-131 134l196 115c14-26 30-46 47-59s36-20 57-20c27 0 51 10 70 30 19 19 28 44 28 73 0 27-10 55-30 83-11 17-57 63-138 139-113 108-169 193-169 255 0 39 22 104 65 194 34 69 54 113 60 132s9 38 9 58c0 29-11 54-33 75s-51 31-88 31c-33 0-62-9-86-26-25-17-41-40-50-67-12-37-18-112-18-226V0z"/><glyph unicode="®" horiz-adv-x="1509" d="M757 1496c131 0 257-33 378-98 121-66 216-160 285-283s103-251 103-385c0-133-34-260-101-381-68-121-162-216-283-283C1018-2 890-36 757-36S497-2 376 66C255 133 160 228 93 349 25 470-9 597-9 730c0 134 35 262 104 385s163 217 284 283c121 65 247 98 378 98m1-150c-105 0-206-26-303-79s-173-128-228-227c-56-99-84-202-84-310 0-107 27-210 82-307 54-97 130-173 227-228s199-82 306-82 210 27 307 82 172 131 227 228 82 200 82 307c0 108-28 211-83 310-56 99-132 174-229 227s-199 79-304 79M411 320v813h165c155 0 241-1 260-2 55-5 97-15 128-32 30-17 55-43 76-78 20-35 30-74 30-117 0-59-19-109-57-150-39-42-93-68-162-78 25-9 44-19 57-30s32-32 55-63c6-8 26-41 60-99l96-164H915l-68 132c-46 89-84 145-114 168s-68 34-114 34h-43V320m0 462h67c95 0 155 4 178 11s41 20 54 39c13 18 20 39 20 62s-6 43-19 61c-13 17-32 30-56 38-24 7-83 11-177 11h-67z"/><glyph unicode="©" horiz-adv-x="1509" d="M757 1496c131 0 257-33 378-99s216-160 285-282c69-123 103-251 103-385 0-133-34-260-101-381-68-121-162-216-283-283C1018-2 890-36 757-36S497-2 376 66C255 133 160 228 93 349 25 470-9 597-9 730c0 134 35 262 104 385 69 122 163 216 284 282s247 99 378 99m0-151c-105 0-206-26-303-79s-174-128-229-226c-55-99-83-202-83-310 0-107 27-209 82-306 54-97 130-173 227-227 97-55 199-82 306-82s209 27 306 82c97 54 173 130 228 227 54 97 81 199 81 306s-28 210-83 309-131 174-228 227-199 79-304 79m186-729 161-54c-25-84-67-148-126-193s-129-67-210-67c-114 0-207 37-279 112S381 592 381 723c0 86 16 163 48 230s78 118 139 151c60 33 127 50 202 50 82 0 151-19 206-58s97-101 128-185l-162-38c-19 49-43 84-72 106-30 22-65 33-106 33-61 0-110-23-149-68-39-46-58-118-58-215s19-169 57-215 84-69 137-69c45 0 83 13 116 40 33 26 58 70 76 131z"/><glyph unicode="™" horiz-adv-x="2048" d="M469 647v677H216v142h665v-142H635V647m345 0v819h259l149-564 150 564h259V647h-158v653l-177-653h-150l-176 653V647z"/><glyph unicode="´" horiz-adv-x="682" d="m187 1192 138 299h315l-275-299z"/><glyph unicode="Æ" horiz-adv-x="2048" d="m-86 0 684 1466h1324v-248h-726V892h669V644h-669V247h753V0H900v345H392L242 0m259 601h402v643H788z"/><glyph unicode="Ø" horiz-adv-x="1593" d="m1239 1359 158 177 139-122-167-188c45-60 79-134 104-221 25-88 37-181 37-280 0-233-64-416-193-549C1188 42 1018-25 807-25c-183 0-330 42-440 125L205-82 63 42l171 192C137 364 88 533 88 742c0 231 64 414 193 548s300 201 515 201c178 0 326-44 443-132m-184-206c-67 57-153 86-256 86-121 0-219-42-294-125-75-84-112-210-112-379 0-106 15-197 46-272m725 533L549 305c69-60 151-90 248-90 119 0 216 43 293 129 76 86 114 214 114 385 0 108-13 197-40 267z"/><glyph unicode="±" horiz-adv-x="1124" d="M434 356v381H50v263h384v381h256v-381h385V737H690V356M50 0v263h1025V0z"/><glyph unicode="¥" horiz-adv-x="1139" d="M422 273H51v221h371v120H51v221h261L1 1466h308l200-426c25-53 43-100 54-141 13 44 31 91 54 141l204 426h308L814 835h265V614H703V494h376V273H703V0H422z"/><glyph unicode="µ" horiz-adv-x="1180" d="M111 1062h279V581c0-139 14-233 42-283 35-65 88-97 157-97 37 0 73 12 106 36s58 57 74 100 24 123 24 241v484h284V0H815v128c-20-37-39-65-57-84S716 9 686-5c-31-14-59-21-84-21-47 0-89 13-126 39-26 19-55 58-86 115v-535H111z"/><glyph unicode="æ" horiz-adv-x="1821" d="m1436 339 275-49c-38-105-96-183-173-235-77-53-176-79-296-79-75 0-144 12-207 37-63 24-121 60-172 109-47-41-108-75-183-103-75-29-153-43-232-43-113 0-202 30-265 89S88 198 88 288c0 54 11 102 34 144 22 42 49 75 81 99 31 23 75 44 132 61 27 9 106 27 238 54 66 14 122 29 169 44v28c0 51-14 90-42 115s-72 38-133 38c-53 0-96-11-127-32-31-22-54-56-67-101l-255 49c33 103 86 178 158 227 71 48 180 72 327 72 69 0 131-8 186-24 54-17 100-41 139-74 41 33 85 57 134 74 48 16 100 24 155 24 107 0 197-22 271-67 73-45 131-112 174-199 42-88 63-212 62-372h-706c11-91 37-156 76-197s88-61 145-61c47 0 88 12 121 37 33 24 59 61 76 112m11 285c-4 59-12 101-24 127-17 37-42 67-75 88-34 21-74 32-119 32-39 0-74-9-103-27-30-19-54-46-71-83-23-49-34-94-32-137M740 508c-154-41-238-63-251-68-45-15-76-32-93-53-18-21-27-45-27-73 0-39 15-72 44-99s66-41 113-41c49 0 96 16 139 47 32 23 53 53 62 88s13 101 13 199z"/><glyph unicode="ø" horiz-adv-x="1251" d="m946 999 104 120 112-92-108-124c40-47 72-103 95-168s34-134 34-205c0-159-52-291-157-396S790-24 632-24C517-24 415 4 325 60L210-73 100 22l116 134c-40 49-71 107-94 174S87 466 87 537c0 160 51 292 154 395 102 103 233 154 393 154 119 0 223-29 312-87M788 817c-45 36-95 54-152 54-75 0-139-29-191-87-53-58-79-139-79-244 0-66 9-125 28-178m480 333L482 242c44-32 94-48 151-48 77 0 141 29 193 87 52 57 78 138 78 242 0 63-10 120-30 172z"/><glyph unicode="¿" horiz-adv-x="1251" d="M763 1062V781H482v281m27-378h254c1-44 2-69 2-76 0-76-14-141-43-196s-86-117-170-186c-85-69-135-117-152-144s-25-58-25-93c0-51 22-96 66-135s103-59 177-59c71 0 131 20 178 60 47 39 81 102 100 187l258-33c-11-83-35-153-71-208-49-75-113-131-192-167s-167-54-262-54c-161 0-289 42-384 127-96 84-144 181-144 292 0 43 9 84 26 125 17 40 43 80 80 121 36 41 94 94 173 159 58 47 94 86 109 117 14 31 21 85 20 163z"/><glyph unicode="¡" horiz-adv-x="682" d="M488 1062V781H206v281m220-384 73-741v-344H195v344l73 741z"/><glyph unicode="«" horiz-adv-x="1139" d="M633 983 373 532 633 70H412L96 532l316 451m613 0L766 532l259-462H804L488 532l316 451z"/><glyph unicode="»" horiz-adv-x="1139" d="m498 70 260 452-260 461h221l316-461L719 70m-613 0 260 452-260 461h221l316-461L327 70z"/><glyph unicode="…" horiz-adv-x="2048" d="M1566 0v281h282V0M884 0v281h281V0M201 0v281h281V0z"/><glyph unicode="À" horiz-adv-x="1479" d="M1471 0h-322l-128 333H435L314 0H0l571 1466h313m42-886-202 544-198-544m365 970H714l-276 299h315z"/><glyph unicode="Ã" horiz-adv-x="1479" d="M1471 0h-322l-128 333H435L314 0H0l571 1466h313m42-886-202 544-198-544m-31 967H367c-1 15-1 27-1 36 0 70 17 124 51 162 34 37 78 56 131 56 23 0 45-2 65-7s57-20 110-43c53-24 94-36 124-36 21 0 39 7 54 20 14 13 23 36 27 67h130c-1-90-17-154-50-193s-76-58-128-58c-23 0-45 2-67 7-15 4-54 18-115 41s-106 35-134 35c-21 0-38-6-50-19s-18-36-19-68z"/><glyph unicode="Õ" horiz-adv-x="1593" d="M89 724c0 149 22 275 67 376 33 75 79 142 137 201 57 59 120 103 189 132 91 39 197 58 316 58 216 0 389-67 519-201 129-134 194-320 194-559 0-237-64-422-193-555C1189 42 1017-25 802-25c-218 0-391 67-520 200S89 491 89 724m305 10c0-166 38-292 115-377 77-86 174-129 292-129s215 43 291 128c75 85 113 212 113 382 0 168-37 293-110 376-74 83-172 124-294 124s-220-42-295-125c-75-84-112-210-112-379m165 813H431c-1 15-1 27-1 36 0 70 17 124 51 162 34 37 78 56 131 56 23 0 45-2 65-7s57-20 110-43c53-24 94-36 124-36 21 0 39 7 54 20 14 13 23 36 27 67h130c-1-90-17-154-50-193s-76-58-128-58c-23 0-45 2-67 7-15 4-54 18-115 41s-106 35-134 35c-21 0-38-6-50-19s-18-36-19-68z"/><glyph unicode="–" horiz-adv-x="1139" d="M-4 426v210h1139V426z"/><glyph unicode="—" horiz-adv-x="2048" d="M0 426v210h2048V426z"/><glyph unicode="“" horiz-adv-x="1024" d="M413 872H132v201c0 81 7 146 22 193 14 47 40 89 79 126s88 67 148 88l55-116c-56-19-96-45-120-78-25-33-38-78-39-133h136m469-281H601v201c0 82 7 146 22 193 14 47 41 89 80 126s88 67 147 88l55-116c-56-19-96-45-120-78-25-33-38-78-39-133h136z"/><glyph unicode="”" horiz-adv-x="1024" d="M600 1466h281v-202c0-81-7-145-21-192-15-47-41-89-80-126-39-38-89-68-148-89l-55 117c56 19 96 45 121 78 24 33 36 78 37 133H600m-472 281h281v-202c0-81-7-145-21-192s-40-89-79-126c-39-38-89-68-149-89l-55 117c57 19 97 45 121 78s37 78 38 133H128z"/><glyph unicode="‘" horiz-adv-x="569" d="M433 872H152v201c0 81 7 146 22 193 14 47 40 89 79 126s88 67 148 88l55-116c-56-19-96-45-120-78-25-33-38-78-39-133h136z"/><glyph unicode="’" horiz-adv-x="569" d="M140 1462h281v-201c0-81-7-145-21-192s-40-90-79-127-89-67-149-88l-55 116c57 19 97 44 121 77s37 77 38 134H140z"/><glyph unicode="÷" horiz-adv-x="1124" d="M421 981v281h281V981M49 592v263h1025V592M421 185v281h281V185z"/><glyph unicode="€" horiz-adv-x="1139" d="m1075 1430-59-277c-57 57-139 85-248 85s-197-39-264-117c-38-44-65-99-81-165h550l-32-155H403c-1-15-1-35-1-59 0-23 1-48 2-73h509l-32-155H425c17-71 42-127 77-168 67-79 153-118 260-118 128 0 230 39 306 118V40C981-3 880-25 765-25c-195 0-355 67-480 200-85 91-142 204-169 339H-32L0 669h98c-1 16-1 33-1 51 0 31 1 58 2 81H-32L0 956h119c28 133 84 244 167 333 126 135 292 202 497 202 112 0 209-20 292-61z"/><glyph unicode="ﬁ" horiz-adv-x="1251" d="M31 1062h156v80c0 89 10 156 29 200s54 80 105 108c51 27 115 41 193 41 80 0 158-12 235-36l-38-196c-45 11-88 16-129 16s-70-9-87-28c-18-19-27-56-27-110v-75h210V841H468V0H187v841H31m789 365v260h281v-260M820 0v1062h281V0z"/><glyph unicode="ﬂ" horiz-adv-x="1251" d="M31 1062h156v80c0 89 10 156 29 200s54 80 105 108c51 27 115 41 193 41 80 0 158-12 235-36l-38-196c-45 11-88 16-129 16s-70-9-87-28c-18-19-27-56-27-110v-75h210V841H468V0H187v841H31M820 0v1466h281V0z"/><glyph unicode="·" horiz-adv-x="569" d="M147 573v281h281V573z"/><glyph unicode="Â" horiz-adv-x="1479" d="M1471 0h-322l-128 333H435L314 0H0l571 1466h313m42-886-202 544-198-544m-140 970 210 295h260l207-295H837l-116 149-108-149z"/><glyph unicode="Ê" horiz-adv-x="1366" d="M149 0v1466h1087v-248H445V893h736V646H445V247h819V0M337 1550l210 295h260l207-295H788l-116 149-108-149z"/><glyph unicode="Á" horiz-adv-x="1479" d="M1471 0h-322l-128 333H435L314 0H0l571 1466h313m42-886-202 544-198-544m28 970 138 299h315l-275-299z"/><glyph unicode="Ë" horiz-adv-x="1366" d="M149 0v1466h1087v-248H445V893h736V646H445V247h819V0M354 1550v241h241v-241m189 0v241h242v-241z"/><glyph unicode="È" horiz-adv-x="1366" d="M149 0v1466h1087v-248H445V893h736V646H445V247h819V0M862 1550H685l-276 299h315z"/><glyph unicode="Í" horiz-adv-x="569" d="M140 0v1466h296V0M106 1550l138 299h315l-275-299z"/><glyph unicode="Î" horiz-adv-x="569" d="M140 0v1466h296V0M-42 1550l210 295h260l207-295H409l-116 149-108-149z"/><glyph unicode="Ï" horiz-adv-x="569" d="M140 0v1466h296V0M-45 1550v241h241v-241m189 0v241h242v-241z"/><glyph unicode="Ì" horiz-adv-x="569" d="M140 0v1466h296V0m7 1550H266l-276 299h315z"/><glyph unicode="Ó" horiz-adv-x="1593" d="M89 724c0 149 22 275 67 376 33 75 79 142 137 201 57 59 120 103 189 132 91 39 197 58 316 58 216 0 389-67 519-201 129-134 194-320 194-559 0-237-64-422-193-555C1189 42 1017-25 802-25c-218 0-391 67-520 200S89 491 89 724m305 10c0-166 38-292 115-377 77-86 174-129 292-129s215 43 291 128c75 85 113 212 113 382 0 168-37 293-110 376-74 83-172 124-294 124s-220-42-295-125c-75-84-112-210-112-379m224 816 138 299h315l-275-299z"/><glyph unicode="Ô" horiz-adv-x="1593" d="M89 724c0 149 22 275 67 376 33 75 79 142 137 201 57 59 120 103 189 132 91 39 197 58 316 58 216 0 389-67 519-201 129-134 194-320 194-559 0-237-64-422-193-555C1189 42 1017-25 802-25c-218 0-391 67-520 200S89 491 89 724m305 10c0-166 38-292 115-377 77-86 174-129 292-129s215 43 291 128c75 85 113 212 113 382 0 168-37 293-110 376-74 83-172 124-294 124s-220-42-295-125c-75-84-112-210-112-379m56 816 210 295h260l207-295H901l-116 149-108-149z"/><glyph unicode="Ò" horiz-adv-x="1593" d="M89 724c0 149 22 275 67 376 33 75 79 142 137 201 57 59 120 103 189 132 91 39 197 58 316 58 216 0 389-67 519-201 129-134 194-320 194-559 0-237-64-422-193-555C1189 42 1017-25 802-25c-218 0-391 67-520 200S89 491 89 724m305 10c0-166 38-292 115-377 77-86 174-129 292-129s215 43 291 128c75 85 113 212 113 382 0 168-37 293-110 376-74 83-172 124-294 124s-220-42-295-125c-75-84-112-210-112-379m561 816H778l-276 299h315z"/><glyph unicode="Ú" horiz-adv-x="1479" d="M147 1466h296V672c0-126 4-208 11-245 13-60 43-108 91-144 47-37 112-55 195-55 84 0 147 17 190 52 43 34 68 76 77 126s13 133 13 249v811h296V696c0-176-8-300-24-373s-45-134-88-184-101-90-173-119c-72-30-166-45-282-45-140 0-246 16-318 49-73 32-130 74-172 126-42 51-70 105-83 162-19 84-29 208-29 372m403 866 138 299h315l-275-299z"/><glyph unicode="Û" horiz-adv-x="1479" d="M147 1466h296V672c0-126 4-208 11-245 13-60 43-108 91-144 47-37 112-55 195-55 84 0 147 17 190 52 43 34 68 76 77 126s13 133 13 249v811h296V696c0-176-8-300-24-373s-45-134-88-184-101-90-173-119c-72-30-166-45-282-45-140 0-246 16-318 49-73 32-130 74-172 126-42 51-70 105-83 162-19 84-29 208-29 372m255 866 210 295h260l207-295H853l-116 149-108-149z"/><glyph unicode="Ù" horiz-adv-x="1479" d="M147 1466h296V672c0-126 4-208 11-245 13-60 43-108 91-144 47-37 112-55 195-55 84 0 147 17 190 52 43 34 68 76 77 126s13 133 13 249v811h296V696c0-176-8-300-24-373s-45-134-88-184-101-90-173-119c-72-30-166-45-282-45-140 0-246 16-318 49-73 32-130 74-172 126-42 51-70 105-83 162-19 84-29 208-29 372m740 866H710l-276 299h315z"/><glyph unicode="¦" horiz-adv-x="573" d="M176 701v790h223V701M176-431v791h223v-791z"/><glyph unicode="Ð" horiz-adv-x="1479" d="M149 1466h540c124 0 218-10 282-29 87-26 161-72 222-137 61-66 108-146 139-239s46-209 46-346c0-121-17-229-51-326-35-97-85-178-152-243-51-49-120-87-207-115C903 10 815 0 705 0H149v640H-3v186h152m295 392V826h314V640H444V247h222c98 0 169 8 212 24 57 20 101 57 131 110 42 75 63 190 63 345 0 110-9 195-26 255-18 59-44 107-78 144-35 37-80 62-135 77-43 11-128 16-255 16z"/><glyph unicode="ð" horiz-adv-x="1251" d="M332 1466h293c38-29 74-59 109-89l181 89 45-98-144-67c128-129 220-258 276-387 55-130 83-253 83-368 0-172-51-310-154-414C918 27 786-25 623-25c-157 0-286 52-387 156C134 234 83 368 83 533c0 162 54 295 162 399 90 87 191 130 304 130 36 0 72-5 109-16 27-8 64-26 113-53-26 47-48 83-65 109s-44 62-81 108l-250-119-43 96 218 103c-67 61-139 120-218 176m44-936c0-106 24-187 73-242 48-56 107-84 177-84 71 0 132 28 182 84s75 133 75 232-26 178-77 235-112 86-182 86c-69 0-127-27-175-81-49-55-73-131-73-230z"/><glyph unicode="Ý" horiz-adv-x="1366" d="M534 0v617L-3 1466h347l345-580 338 580h341L829 615V0M495 1550l138 299h315l-275-299z"/><glyph unicode="ý" horiz-adv-x="1139" d="M14 1062h299l254-754 248 754h291L731 40l-67-185c-25-62-48-109-70-142-23-33-48-59-77-79-29-21-65-37-107-48-43-11-91-17-144-17-54 0-107 6-159 17L82-194c44-9 84-13 119-13 65 0 114 19 145 58 31 38 55 87 72 146m0 1195 138 299h315l-275-299z"/><glyph unicode="Þ" horiz-adv-x="1366" d="M149 0v1466h296v-276h179c180 0 298-7 353-22 84-23 154-71 211-144 56-74 84-169 84-286 0-89-16-165-49-226s-74-110-124-145c-51-35-102-58-154-69-71-15-173-22-307-22H445V0m0 942V525h162c111 0 181 4 211 11 41 10 77 32 106 66s43 79 43 135c0 45-11 85-34 119-23 33-51 56-84 68s-120 18-261 18z"/><glyph unicode="þ" horiz-adv-x="1251" d="M139 1466h281V938c55 55 106 94 153 116 46 21 99 32 159 32 123 0 228-48 314-145s129-231 129-404c0-177-43-315-130-413C958 25 853-24 730-24c-59 0-112 12-159 35-48 23-98 63-151 120v-535H139m279 958c0-110 17-191 52-244 49-75 113-112 194-112 62 0 115 27 159 80 43 53 65 136 65 250 0 121-22 209-66 263-44 53-100 80-169 80-67 0-123-26-168-78-45-53-67-132-67-239z"/><glyph unicode="×" horiz-adv-x="1196" d="m111 420 302 302-304 303 186 186 304-303 302 302 181-182-302-302 305-305-186-186-305 305-302-302z"/><glyph unicode="¹" horiz-adv-x="682" d="M495 727H305v513c-63-43-134-76-214-98v155c63 18 121 47 172 87 36 28 62 61 78 100h154z"/><glyph unicode="²" horiz-adv-x="682" d="M632 885V727H25c7 57 26 107 55 152s93 107 194 186c76 59 122 99 137 118 21 25 31 51 31 77 0 25-8 44-25 59s-42 22-76 22-59-8-76-24c-17-17-27-47-31-91l-189 16c10 78 35 135 75 171 53 47 129 71 226 71 93 0 164-21 213-64s73-93 73-151c0-36-8-70-23-102-15-33-40-66-73-101-17-17-62-55-135-112-39-30-66-53-83-69z"/><glyph unicode="³" horiz-adv-x="682" d="m40 946 184 20c5-37 18-64 37-81 19-18 45-27 76-27 33 0 59 10 79 30s30 46 30 78c0 29-9 52-28 71s-44 28-75 28c-20 0-50-5-91-15l23 146c35-1 62 3 82 11 19 7 33 17 42 29 8 11 12 24 12 39 0 19-7 35-21 48-14 12-35 18-62 18s-49-7-66-22-28-41-33-76l-178 26c17 69 41 118 74 147 51 45 120 68 208 68 83 0 148-21 197-62 48-41 72-89 72-142 0-25-7-49-21-70-19-30-44-55-76-74 45-16 79-39 102-70s34-68 34-109c0-63-28-119-84-168s-130-74-221-74c-85 0-154 21-205 63s-82 98-91 168z"/><glyph unicode="½" horiz-adv-x="1708" d="M496 727H306v513c-63-43-134-76-214-98v155c63 18 121 47 172 87 36 28 62 61 78 100h154m3-1538H340l869 1538h159m288-1369V-42h-607c7 57 26 107 55 152s94 107 194 186c76 59 122 99 137 118 21 25 31 51 31 77 0 25-8 44-25 59s-42 22-76 22c-33 0-58-8-75-24-17-17-28-47-31-91l-190 16c10 77 35 134 76 171 53 47 128 71 225 71 93 0 164-21 213-64s73-93 73-151c0-36-7-70-22-102-15-33-40-66-74-101-17-17-62-55-135-112-38-30-65-53-82-70z"/><glyph unicode="¼" horiz-adv-x="1708" d="M496 727H306v513c-63-43-134-76-214-98v155c63 18 121 47 172 87 36 28 62 61 78 100h154m3-1538H340l869 1538h159m35-1526v146h-360v141l382 470h156V249h107V104h-107V-42m-178 291v225l-183-225z"/><glyph unicode="¾" horiz-adv-x="1708" d="m40 946 184 20c5-37 18-64 37-81 19-18 45-27 76-27 33 0 59 10 79 30s30 46 30 78c0 29-9 52-28 71s-44 28-75 28c-20 0-50-5-91-15l23 146c35-1 62 3 82 11 19 7 33 17 42 29 8 11 12 24 12 39 0 19-7 35-21 48-14 12-35 18-62 18s-49-7-66-22-28-41-33-76l-178 26c17 69 41 118 74 147 51 45 120 68 208 68 83 0 148-21 197-62 48-41 72-89 72-142 0-25-7-49-21-70-19-30-44-55-76-74 45-16 79-39 102-70s34-68 34-109c0-63-28-119-84-168s-130-74-221-74c-85 0-154 21-205 63s-82 98-91 168M523-54H364l869 1538h158m11-1526v146h-360v141l382 470h156V249h108V104h-108V-42m-178 291v225l-182-225z"/></font>
</svg>
