<svg xmlns="http://www.w3.org/2000/svg" width="568.382" height="603.144" xml:space="preserve"><font horiz-adv-x="1000"><font-face font-family="FreeSans" underline-position="-176" underline-thickness="50"/><glyph horiz-adv-x="250"/><glyph unicode="-" horiz-adv-x="333" d="M287 312v-72H46v72z"/><glyph unicode="." horiz-adv-x="250" d="M184 104V0H80v104z"/><glyph unicode="/" horiz-adv-x="278" d="M229 729h55L47-20H-8z"/><glyph unicode="0" horiz-adv-x="556" d="M43 343c0 59 5 112 15 157s23 81 38 107c15 25 34 46 55 62s42 27 62 32c19 5 40 8 62 8 155 0 232-124 232-372 0-117-20-206-59-267-40-62-98-93-173-93-76 0-134 31-173 94-39 62-59 153-59 272m90-1c0-195 47-292 140-292 49 0 86 24 109 72s35 122 35 223c0 191-47 286-142 286s-142-96-142-289z"/><glyph unicode="1" horiz-adv-x="556" d="M259 505H102v63c68 9 112 21 133 36s39 50 54 105h58V0h-88z"/><glyph unicode="2" horiz-adv-x="556" d="M50 463c5 164 83 246 234 246 67 0 122-19 164-58s63-89 63-150c0-88-50-159-150-214l-100-54c-43-23-74-46-93-68s-30-48-35-78h373V0H34c4 78 20 138 47 181 27 42 78 84 152 126l92 52c64 37 96 83 96 140 0 38-13 70-40 95s-60 38-100 38c-89 0-136-56-143-169z"/><glyph unicode="3" horiz-adv-x="556" d="M270 632c-51 0-85-14-104-41-19-28-30-65-31-111H47c3 153 77 229 222 229 67 0 120-17 159-52 38-35 57-82 57-143 0-72-33-121-99-147 43-15 73-35 92-61 19-27 28-63 28-108 0-67-22-121-65-161-44-40-102-60-175-60C121-23 43 53 32 206h88c3-51 17-89 41-114s60-37 108-37c46 0 82 13 108 38s39 59 39 104c0 86-49 129-147 129l-37-1h-11v75c63 1 108 9 135 24 26 15 39 44 39 87 0 37-11 67-33 89-23 21-53 32-92 32z"/><glyph unicode="4" horiz-adv-x="556" d="M327 170H28v93l322 446h65V249h105v-79H415V0h-88m0 249v310L105 249z"/><glyph unicode="5" horiz-adv-x="556" d="M476 709v-87H181l-28-198c39 29 83 43 131 43 68 0 123-22 166-65 42-44 63-101 63-171 0-75-23-136-68-183S341-23 270-23c-27 0-52 3-75 9S153-1 138 8c-15 8-29 19-41 33-13 13-22 25-28 36-7 10-13 23-18 39-6 15-10 26-11 32s-3 15-5 26h88c21-79 69-119 145-119 48 0 86 15 114 44 27 29 41 69 41 120 0 53-14 94-42 125-28 30-66 45-113 45-27 0-51-5-70-14-19-10-39-27-60-52H57l53 386z"/><glyph unicode="=" horiz-adv-x="584" d="M534 353v-70H50v70m484-172v-70H50v70z"/><glyph unicode="B" horiz-adv-x="664" d="M624 208c0-63-20-113-59-151S474 0 409 0H80v729h296c41 0 76-6 106-18s53-28 68-47c15-20 25-40 32-59 7-20 10-40 10-61 0-75-34-128-101-159 47-18 81-41 102-69s31-64 31-108M353 647H173V415h180c97 0 146 39 146 116s-49 116-146 116m47-565c33 0 59 7 80 22 21 14 34 30 41 47s10 36 10 56c0 38-11 69-34 92s-55 34-97 34H173V82z"/><glyph unicode="D" horiz-adv-x="698" d="M80 0v729h281c93 0 165-32 218-97s79-154 79-267-26-202-79-267S453 0 361 0M173 82h172c72 0 127 24 164 72s56 118 56 210c0 93-19 163-56 211s-92 72-164 72H173z"/><glyph unicode="E" horiz-adv-x="633" d="M173 332V82h430V0H80v729h505v-82H173V414h397v-82z"/><glyph unicode="F" horiz-adv-x="599" d="M173 332V0H80v729h489v-82H173V414h348v-82z"/><glyph unicode="G" horiz-adv-x="765" d="M133 362c0-25 2-51 7-76 5-26 13-53 25-81s28-52 47-73 44-39 75-52c31-14 67-21 107-21 67 0 122 21 165 63s64 96 64 161v20H401v82h304V-4h-59l-23 97C554 16 471-23 374-23c-99 0-179 35-241 106S40 245 40 357c0 32 3 64 9 97 6 32 17 66 34 101s38 66 63 93 58 49 101 67c42 17 90 26 143 26 83 0 152-20 206-61 53-41 86-98 99-172h-95c-10 47-34 84-71 111-38 27-85 40-140 40-77 0-139-27-186-81-47-55-70-127-70-216z"/><glyph unicode="H" horiz-adv-x="721" d="M548 332H173V0H80v729h93V414h375v315h93V0h-93z"/><glyph unicode="M" horiz-adv-x="846" d="M473 0h-98L168 611V0H80v729h129L425 94l212 635h129V0h-88v611z"/><glyph unicode="N" horiz-adv-x="730" d="M650 729V0H545L168 591V0H80v729h101l381-596v596z"/><glyph unicode="P" horiz-adv-x="656" d="M606 515c0-62-19-112-56-149-38-38-87-57-148-57H173V0H80v729h301c72 0 128-18 167-55s58-90 58-159M173 391h194c45 0 80 11 105 34s37 54 37 94-12 71-37 94-60 34-105 34H173z"/><glyph unicode="R" horiz-adv-x="709" d="M523 360c21-9 39-20 54-33 14-13 24-27 31-43 6-16 10-31 12-45s3-31 3-50v-26c-1-11-1-20-1-25 0-27 3-50 9-69s18-34 35-46V0H553c-13 31-20 70-20 119v65c0 45-10 78-29 99s-50 31-91 31H173V0H80v729h336c71 0 126-17 165-50 38-34 57-82 57-145 0-41-9-76-27-103s-47-51-88-71m18 161c0 48-13 81-38 99s-60 27-105 27H173V396h225c49 0 86 10 109 30s34 52 34 95z"/><glyph unicode="S" horiz-adv-x="667" d="M342 59c37 0 69 4 95 13s45 20 58 34c12 14 21 28 26 42 5 13 7 28 7 43 0 55-45 95-134 118l-181 48c-95 25-143 81-143 170 0 66 23 118 70 157 46 38 109 57 189 57 84 0 149-20 196-59 47-40 70-96 71-167h-88c-1 47-17 84-48 110-31 25-76 38-134 38-49 0-89-11-118-34-30-23-45-52-45-89 0-28 9-50 27-66s49-30 93-42l183-49c49-13 88-36 115-68s40-70 40-115c0-19-2-38-7-57s-15-39-28-59c-13-21-30-39-51-54S487 2 453-8c-35-10-74-15-117-15-27 0-53 2-78 7-25 4-51 12-77 24-26 11-48 26-67 45-19 18-34 42-46 73-13 31-19 66-20 106h88v-5c0-21 3-40 10-58 6-18 16-36 31-53 14-17 35-31 64-41 28-11 62-16 101-16z"/><glyph unicode="T" horiz-adv-x="632" d="M363 647V0h-93v647H30v82h572v-82z"/><glyph unicode="V" horiz-adv-x="645" d="M377 0H277L15 729h100l214-617 202 617h99z"/><glyph unicode="W" horiz-adv-x="937" d="M737 0H635L467 599 304 0H202L15 729h104l137-592 162 592h100l166-592 134 592h104z"/><glyph unicode="a" horiz-adv-x="543" d="M53 369c4 113 74 170 210 170 65 0 114-12 147-36 33-25 50-60 50-107V88c0-27 15-41 45-41 6 0 12 1 18 2v-63c-23-6-42-9-57-9-27 0-47 6-60 19-14 12-23 31-26 58-56-51-115-77-178-77-53 0-94 14-125 42S30 85 30 132c0 15 2 29 5 42s6 24 10 34c3 9 10 18 19 27 9 8 17 15 24 20 6 5 17 11 32 16s26 8 34 11c8 2 22 5 42 8s35 6 44 7 26 4 50 7c33 4 55 10 68 19s19 22 19 39v22c0 25-10 45-30 58-21 13-50 20-87 20-39 0-68-7-88-22s-32-39-35-71m83-319c46 0 84 12 113 37 29 24 44 50 44 78v94c-17-8-42-15-75-20-34-5-63-10-88-14s-47-13-67-28-30-36-30-63 9-47 27-62 43-22 76-22z"/><glyph unicode="b" horiz-adv-x="559" d="M60 729h83V453c38 57 92 86 162 86 69 0 124-25 164-74s60-116 60-201c0-87-21-156-62-208-41-53-97-79-166-79-71 0-127 30-166 90V0H60m229 461c-44 0-79-18-106-55s-40-87-40-148 13-110 40-147 62-56 106-56c45 0 82 19 111 56 28 37 42 85 42 144 0 63-14 113-41 150-28 37-65 56-112 56z"/><glyph unicode="c" horiz-adv-x="506" d="M470 348h-84c-5 37-19 65-40 85-21 19-49 29-84 29-45 0-81-18-106-55-26-37-39-89-39-154 0-62 13-111 39-146s62-53 108-53c71 0 114 42 128 126h84c-5-64-27-114-64-149-37-36-87-54-150-54-71 0-128 25-169 75-42 49-63 116-63 201 0 87 21 156 64 208 42 52 98 78 169 78 61 0 109-16 146-49 36-33 56-80 61-142z"/><glyph unicode="d" horiz-adv-x="559" d="M499 729V0h-74v69c-23-33-47-56-73-70-27-15-58-22-94-22-71 0-126 26-167 77S30 174 30 263c0 83 21 150 62 201 41 50 95 75 163 75 72 0 126-27 161-81v271M269 461c-45 0-82-19-110-56s-42-86-42-147 14-110 42-147 65-56 111-56c44 0 79 18 106 55s40 85 40 146c0 63-13 113-40 150s-62 55-107 55z"/><glyph unicode="e" horiz-adv-x="533" d="M503 234H117c1-55 16-98 43-131s64-49 111-49c68 0 114 35 137 105h84c-11-57-36-102-75-134s-89-48-149-48C195-23 137 2 94 52c-43 49-64 117-64 203s22 155 66 207c43 51 101 77 174 77 155 0 233-102 233-305m-384 68h295c0 45-14 83-41 114s-62 46-104 46-77-14-104-43-43-68-46-117z"/><glyph unicode="f" horiz-adv-x="280" d="M260 524v-68h-87V0H90v456H20v68h70v89c0 37 11 67 33 88 21 21 51 31 90 31 15 0 31-2 47-5v-69c-13 1-22 1-29 1-39 0-58-18-58-53v-82z"/><glyph unicode="g" horiz-adv-x="550" d="M246-23C185-23 133 2 92 53c-41 50-62 117-62 200 0 85 21 154 62 207s94 79 161 79c65 0 119-30 160-91l-10 76h87V86c0-50-3-92-9-125-6-34-17-65-33-94s-40-50-71-64c-32-14-72-21-121-21-61 0-110 14-147 42S52-109 47-60h85c9-59 52-88 127-88 56 0 94 16 115 48 21 31 31 79 31 144v27c-23-33-47-57-72-72s-54-22-87-22m16 485c-45 0-80-18-106-55s-39-86-39-149 13-113 39-149c26-37 62-55 107-55 44 0 79 18 104 54 25 35 38 84 38 147 0 65-12 116-37 153-25 36-61 54-106 54z"/><glyph unicode="h" horiz-adv-x="536" d="M393 363c0 37-11 63-33 79-23 16-48 24-75 24-43 0-77-16-103-48-26-33-39-76-39-129V0H60v729h83V452c25 32 50 55 75 68s56 19 93 19c51 0 91-13 121-38 29-26 44-61 44-105V0h-83z"/><glyph unicode="i" horiz-adv-x="222" d="M150 524V0H67v524m83 205V624H66v105z"/><glyph unicode="k" horiz-adv-x="514" d="M143 729V302l222 222h107L290 343 504 0H401L224 284l-81-80V0H60v729z"/><glyph unicode="l" horiz-adv-x="214" d="M144 729V0H60v729z"/><glyph unicode="m" horiz-adv-x="812" d="M60 524h77v-74c23 31 47 54 72 68s54 21 89 21c65 0 112-27 141-80 25 29 49 50 73 62s53 18 88 18c49 0 86-12 113-37 26-25 39-62 39-109V0h-84v361c0 33-8 59-25 78-17 18-41 27-72 27-34 0-63-13-87-40s-36-59-36-97V0h-84v361c0 33-8 59-25 78-17 18-41 27-72 27-34 0-63-13-87-40s-36-59-36-97V0H60z"/><glyph unicode="n" horiz-adv-x="537" d="M60 524h77v-88c23 37 49 63 76 79s59 24 98 24c51 0 91-13 121-39s45-61 45-104V0h-83v363c0 31-10 56-29 75s-46 28-79 28c-43 0-77-16-103-48-26-33-39-76-39-129V0H60z"/><glyph unicode="o" horiz-adv-x="534" d="M266 539c75 0 134-25 176-74 41-50 62-120 62-211 0-86-21-154-63-203-43-49-101-74-174-74-75 0-133 25-174 75-42 49-63 118-63 206s21 157 63 207c42 49 100 74 173 74m1-77c-47 0-83-18-110-54-27-37-40-87-40-150s13-113 40-149c27-37 63-55 110-55 46 0 83 18 110 55 27 36 40 85 40 146 0 65-13 115-39 152-27 37-64 55-111 55z"/><glyph unicode="p" horiz-adv-x="559" d="M60-218v742h77v-79c39 63 95 94 167 94 69 0 124-26 165-77 40-51 60-121 60-209 0-83-20-150-61-200-41-51-96-76-163-76-65 0-118 26-161 78v-273m146 679c-44 0-79-18-106-55s-40-87-40-148 13-110 40-147 62-56 106-56c45 0 82 19 110 56s42 85 42 144c0 63-14 113-41 150-28 37-65 56-111 56z"/><glyph unicode="r" horiz-adv-x="332" d="M312 451c-56-1-98-14-126-39s-42-71-42-140V0H60v524h77v-95c24 39 47 68 70 85 22 17 46 25 73 25 7 0 18-1 32-3z"/><glyph unicode="s" horiz-adv-x="493" d="M122 156c4-31 15-56 33-74 17-19 49-28 95-28 37 0 66 8 89 23 22 15 33 34 33 59 0 19-6 35-19 46s-33 20-62 27l-78 19c-62 15-105 33-129 56-25 22-37 54-37 95 0 49 18 88 55 117s85 43 146 43 107-14 140-42 49-68 50-119h-88c-2 56-37 84-105 84-34 0-61-7-81-21-20-15-30-34-30-58 0-19 8-34 23-45 15-12 40-22 74-30l80-19c52-13 90-30 113-53s35-54 35-93c0-51-19-91-58-121s-92-45-158-45C108-23 38 37 34 156z"/><glyph unicode="t" horiz-adv-x="280" d="M260 524v-68h-86V97c0-19 3-31 10-37 6-7 18-10 36-10 17 0 30 1 40 4v-70c-26-5-49-7-68-7-33 0-58 7-75 22-17 14-26 34-26 61v396H20v68h71v144h83V524z"/><glyph unicode="u" horiz-adv-x="537" d="M477 0h-75v73c-25-35-50-59-77-74s-59-22-98-22c-51 0-91 13-121 39-31 26-46 61-46 104v404h83V153c0-31 10-56 29-75s46-28 79-28c43 0 78 16 104 49 26 32 39 75 39 128v297h83z"/><glyph unicode="v" horiz-adv-x="496" d="M285 0h-91L10 524h94L244 99l148 425h94z"/><glyph unicode="z" horiz-adv-x="486" d="M442 524v-74L131 73h325V0H30v75l313 376H51v73z"/><glyph unicode="ü" horiz-adv-x="537" d="M412 729V625H308v104m-75 0V625H129v104M477 0h-75v73c-25-35-50-59-77-74s-59-22-98-22c-51 0-91 13-121 39-31 26-46 61-46 104v404h83V153c0-31 10-56 29-75s46-28 79-28c43 0 78 16 104 49 26 32 39 75 39 128v297h83z"/></font>
</svg>
