<svg xmlns="http://www.w3.org/2000/svg" width="664.361" height="689.92" xml:space="preserve" style="display:inline"><defs><marker orient="auto" refY="0" refX="0" id="c" style="overflow:visible"><path d="m0 0 5-5-17.5 5L5 5 0 0z" style="fill-rule:evenodd;stroke:#000;stroke-width:1pt;marker-start:none" transform="matrix(-.4 0 0 -.4 -4 0)"/></marker></defs><font horiz-adv-x="2048" vert-origin-x="45" vert-origin-y="90" vert-adv-y="90"><font-face font-family="DejaVuLGCSerif" units-per-em="2048" underline-position="-130" underline-thickness="90"/><glyph unicode="-" horiz-adv-x="692" d="M90 627h512V471H90z"/><glyph unicode="." horiz-adv-x="651" d="M193 104c0 37 13 69 38 95s57 39 95 39c37 0 68-13 94-39s39-58 39-95-13-68-39-94-57-39-94-39c-38 0-70 13-95 39-25 25-38 57-38 94z"/><glyph unicode="A" horiz-adv-x="1479" d="M410 541h548l-274 710M-12 0v106h131l532 1387h168l533-1387h147V0H956v106h166L997 434H369L244 106h164V0z"/><glyph unicode="B" horiz-adv-x="1505" d="M506 106h299c120 0 208 26 263 78s83 135 83 248-27 195-82 247c-55 51-143 77-264 77H506m0 106h254c109 0 189 21 240 63 50 42 75 108 75 199s-25 158-75 200c-51 41-131 62-240 62H506M113 0v106h190v1280H113v107h737c151 0 264-31 341-92 76-62 114-154 114-277 0-89-26-159-79-212s-131-85-233-97c127-16 223-56 289-121 65-65 98-153 98-262 0-148-47-257-140-327S1001 0 803 0z"/><glyph unicode="C" horiz-adv-x="1567" d="M1444 395c-44-139-118-245-221-316C1119 7 988-29 829-29c-97 0-188 17-271 50s-157 82-222 147c-75 75-130 160-166 255-37 95-55 202-55 322 0 232 67 419 201 562 134 142 311 213 530 213 81 0 168-11 260-32s191-54 297-97v-344h-113c-25 125-74 218-148 277-75 59-179 89-313 89-159 0-280-56-362-169S344 964 344 745s41-384 123-497S670 78 829 78c111 0 203 27 275 80s124 132 156 237z"/><glyph unicode="D" horiz-adv-x="1642" d="M506 106h186c194 0 343 55 447 166 103 111 155 269 155 476s-52 365-155 474-252 164-447 164H506M113 0v106h190v1280H113v107h594c257 0 458-66 602-197 143-131 215-314 215-548 0-235-72-418-216-550S964 0 707 0z"/><glyph unicode="F" horiz-adv-x="1421" d="M113 0v106h190v1280H113v107h1222v-332h-123v209H506V870h510v187h123V561h-123v187H506V106h239V0z"/><glyph unicode="L" horiz-adv-x="1360" d="M113 0v106h190v1280H113v107h583v-107H506V123h682v250h123V0z"/><glyph unicode="M" horiz-adv-x="2097" d="M113 0v106h190v1280H102v107h435l524-1063 524 1063h408v-107h-199V106h191V0h-584v106h190v1154L1079 219H938L426 1260V106h190V0z"/><glyph unicode="N" horiz-adv-x="1792" d="M100 0v106h201v1280H100v107h383l895-1178v1071h-200v107h524v-107h-201V-29h-121L424 1229V106h201V0z"/><glyph unicode="P" horiz-adv-x="1378" d="M506 760h264c99 0 175 27 227 81 52 53 78 131 78 232 0 102-26 180-78 233s-128 80-227 80H506M113 0v106h190v1280H113v107h706c149 0 268-38 355-113 87-76 131-178 131-307 0-128-44-230-131-306S968 653 819 653H506V106h231V0z"/><glyph unicode="S" horiz-adv-x="1403" d="M190 72v340l115-1c3-113 36-197 99-251 62-55 157-82 284-82 119 0 209 24 272 71 62 47 93 115 93 205 0 72-19 127-56 166-38 39-118 76-239 113l-197 59c-143 43-243 97-301 162-59 65-88 153-88 266 0 127 45 225 135 295s216 105 379 105c69 0 145-7 228-22s171-37 264-66v-318h-113c-11 105-46 182-105 229s-149 70-270 70c-105 0-185-21-240-64s-83-106-83-188c0-71 21-127 62-168s129-81 263-121l185-55c135-41 232-92 290-155 57-63 86-148 86-254 0-145-46-254-139-327S883-29 700-29c-82 0-165 8-250 25S278 38 190 72z"/><glyph unicode="T" horiz-adv-x="1366" d="M391 0v106h191v1268H143v-233H20v352h1326v-352h-123v233H784V106h191V0z"/><glyph unicode="a" horiz-adv-x="1221" d="M815 334v225H578c-91 0-159-20-204-59s-67-100-67-181c0-74 23-133 68-176s107-65 184-65 139 24 186 71 70 109 70 185m184 330V106h164V0H815v115C774 66 727 29 674 6S558-29 487-29C369-29 275 2 206 65S102 212 102 319c0 110 40 195 119 256s191 91 336 91h258v73c0 81-24 143-73 188-49 44-118 66-207 66-73 0-132-17-175-50s-70-83-81-148h-95v215c64 27 126 48 187 62 60 13 119 20 176 20 147 0 260-36 337-109s115-180 115-319z"/><glyph unicode="b" horiz-adv-x="1311" d="M236 106v1344H59v106h361V897c36 67 82 116 138 148 55 31 124 47 206 47 131 0 237-52 320-155s124-238 124-405-41-302-124-405C1001 23 895-29 764-29c-82 0-151 16-206 48-56 31-102 80-138 147V0H59v106m361 373c0-128 25-225 74-292S614 86 707 86c94 0 165 38 214 113 48 75 72 186 72 333s-24 258-72 333c-49 75-120 112-214 112-93 0-164-34-213-101s-74-165-74-292z"/><glyph unicode="c" horiz-adv-x="1147" d="M1053 319c-26-113-76-200-150-259S733-29 616-29c-155 0-279 51-373 154-94 102-141 238-141 407 0 170 47 306 141 408 94 101 218 152 373 152 67 0 134-8 201-23 67-16 134-40 201-72V725H911c-14 93-44 161-91 204s-115 64-202 64c-99 0-174-38-225-115s-76-193-76-346 25-269 76-346c50-77 125-116 225-116 79 0 143 21 190 62s80 104 97 187z"/><glyph unicode="e" horiz-adv-x="1212" d="M1110 512H317v-8c0-143 27-251 81-324S532 70 637 70c81 0 147 21 199 64 51 42 87 105 108 188h148c-29-117-83-204-162-263S747-29 618-29c-155 0-280 51-374 154-95 102-142 238-142 407 0 168 46 303 139 406s214 154 365 154c161 0 284-49 370-148s131-243 134-432M893 618c-4 124-30 218-78 281-49 63-118 94-209 94-85 0-151-32-200-95s-78-157-89-280z"/><glyph unicode="g" horiz-adv-x="1311" d="M1075 956V23c0-153-42-270-126-353S745-455 590-455c-70 0-137 6-201 19s-125 32-184 57v223h96c12-69 40-120 85-152s109-48 192-48c108 0 187 31 238 92 50 61 75 156 75 287v143C855 99 809 50 754 19c-56-32-125-48-207-48-131 0-237 52-320 156-83 103-125 238-125 405s41 302 124 405 190 155 321 155c82 0 151-16 207-47 55-32 101-81 137-148v166h360V956M891 584c0 127-24 225-73 292S697 977 604 977c-95 0-166-37-214-112-49-75-73-186-73-333s24-258 73-333c48-75 119-113 214-113 93 0 165 34 214 101s73 164 73 292z"/><glyph unicode="h" horiz-adv-x="1319" d="M84 0v106h166v1344H74v106h360V874c34 72 78 126 133 163 54 37 117 55 189 55 117 0 204-34 259-101s83-172 83-315V106h164V0H754v106h159v512c0 130-16 219-47 267-32 47-89 71-170 71-85 0-150-31-195-93s-67-152-67-271V106h160V0z"/><glyph unicode="i" horiz-adv-x="655" d="M199 1393c0 31 11 57 34 80 22 23 49 34 80 34s57-11 80-34c22-23 33-49 33-80s-11-58-33-80-49-33-80-33-58 11-80 33c-23 22-34 49-34 80M434 106h174V0H74v106h176v850H74v107h360z"/><glyph unicode="j" horiz-adv-x="635" d="M205 1393c0 31 11 57 34 80 22 23 49 34 80 34s57-11 80-34c22-23 33-49 33-80s-11-58-32-80c-22-22-49-33-81-33-31 0-58 11-80 33-23 22-34 49-34 80m45-437H76v107h358V-104c0-109-32-195-97-257-65-63-155-94-269-94-48 0-94 6-137 17-44 11-87 27-128 49v219h95c5-64 21-111 50-141 28-30 69-45 124-45 61 0 106 21 135 62s43 104 43 190z"/><glyph unicode="l" horiz-adv-x="655" d="M420 106h174V0H59v106h177v1344H59v106h361z"/><glyph unicode="n" horiz-adv-x="1319" d="M84 0v106h166v850H74v107h360V874c34 72 78 126 133 163 54 37 117 55 189 55 117 0 204-34 259-101s83-172 83-315V106h164V0H754v106h159v512c0 130-16 219-48 268-32 48-88 72-169 72-85 0-150-31-195-93-45-63-67-154-67-273V106h160V0z"/><glyph unicode="o" horiz-adv-x="1233" d="M616 70c99 0 173 39 224 117 50 78 75 193 75 345s-25 267-75 345c-51 77-125 116-224 116s-173-39-223-116c-51-78-76-193-76-345s25-267 76-345S518 70 616 70m0-99c-155 0-279 51-373 154-94 102-141 238-141 407s47 305 141 407c93 102 218 153 373 153s280-51 374-153c93-102 140-238 140-407s-47-305-140-407C896 22 771-29 616-29z"/><glyph unicode="r" horiz-adv-x="979" d="M979 1065V799H873c-3 53-18 92-44 118s-64 39-114 39c-91 0-160-31-208-94-49-63-73-153-73-270V106h213V0H84v106h166v852H74v105h360V874c36 74 82 129 139 165 57 35 126 53 207 53 30 0 62-2 95-7s67-11 104-20z"/><glyph unicode="s" horiz-adv-x="1051" d="M115 59v248h106c3-79 28-139 75-178s116-59 208-59c83 0 146 16 189 47s65 76 65 135c0 47-16 84-47 113-32 29-99 59-201 92l-133 45c-91 29-157 66-198 110s-62 100-62 168c0 97 36 174 107 229s170 83 296 83c56 0 115-7 177-22s126-36 192-64V774H783c-3 69-27 122-72 161s-107 58-185 58c-77 0-136-14-175-41-40-27-60-68-60-123 0-45 15-80 45-107s90-55 180-83l146-45c101-31 173-70 218-117 44-47 66-108 66-182 0-101-38-180-115-237-77-58-184-87-319-87-69 0-136 7-201 22S180 30 115 59z"/><glyph unicode="t" horiz-adv-x="823" d="M221 956H59v107h162v330h185v-330h346V956H406V281c0-90 9-148 26-173s49-38 96-38c48 0 83 14 105 43 22 28 34 74 35 137h139c-5-97-32-167-79-212S609-29 512-29C406-29 331-5 287 42s-66 126-66 239z"/><glyph unicode="u" horiz-adv-x="1319" d="M725 1063h344V106h174V0H885v188c-34-71-78-124-132-161S636-29 565-29C447-29 360 5 305 72c-56 67-84 172-84 315v569H55v107h351V444c0-129 16-218 48-266 31-48 88-72 169-72 85 0 150 31 195 94s67 154 67 273v483H725z"/><glyph unicode="v" horiz-adv-x="1157" d="M506 0 115 956H-6v107h489V956H313l299-731 299 731H752v107h399V956h-119L641 0z"/><glyph unicode="x" horiz-adv-x="1155" d="m596 649 223 307H676v107h409V956H944L659 563l332-457h139V0H639v106h135L543 424 311 106h138V0H45v106h141l293 404-323 446H25v107h475V956H373z"/><glyph unicode="y" horiz-adv-x="1157" d="m442-195 70 177-397 974H-6v107h489V956H313l299-731 299 731H752v107h399V956h-119L545-240c-33-83-70-139-111-169-41-31-98-46-172-46-31 0-63 3-96 8s-67 13-100 23v203h94c4-45 16-78 35-97 19-20 48-30 88-30 37 0 66 10 89 31 22 20 45 61 70 122z"/><glyph unicode="â" horiz-adv-x="1221" d="M815 334v225H578c-91 0-159-20-204-59s-67-100-67-181c0-74 23-133 68-176s107-65 184-65 139 24 186 71 70 109 70 185m184 330V106h164V0H815v115C774 66 727 29 674 6S558-29 487-29C369-29 275 2 206 65S102 212 102 319c0 110 40 195 119 256s191 91 336 91h258v73c0 81-24 143-73 188-49 44-118 66-207 66-73 0-132-17-175-50s-70-83-81-148h-95v215c64 27 126 48 187 62 60 13 119 20 176 20 147 0 260-36 337-109s115-180 115-319m-514 974h168l235-376H772l-203 260-203-260H250z"/><glyph unicode="ç" horiz-adv-x="1147" d="M1053 319c-26-113-76-200-150-259S733-29 616-29c-155 0-279 51-373 154-94 102-141 238-141 407 0 170 47 306 141 408 94 101 218 152 373 152 67 0 134-8 201-23 67-16 134-40 201-72V725H911c-14 93-44 161-91 204s-115 64-202 64c-99 0-174-38-225-115s-76-193-76-346 25-269 76-346c50-77 125-116 225-116 79 0 143 21 190 62s80 104 97 187M678 0c43-43 75-83 96-120s31-72 31-105c0-54-21-96-63-125-42-30-100-45-175-45-28 0-57 2-86 6s-59 10-90 18v131c27-11 54-20 81-25 26-6 51-9 74-9 38 0 68 9 90 27 22 17 33 41 33 71 0 19-7 43-22 72S610-40 581 0z"/><glyph unicode="ô" horiz-adv-x="1233" d="M616 70c99 0 173 39 224 117 50 78 75 193 75 345s-25 267-75 345c-51 77-125 116-224 116s-173-39-223-116c-51-78-76-193-76-345s25-267 76-345S518 70 616 70m0-99c-155 0-279 51-373 154-94 102-141 238-141 407s47 305 141 407c93 102 218 153 373 153s280-51 374-153c93-102 140-238 140-407s-47-305-140-407C896 22 771-29 616-29m-84 1667h168l235-376H819l-203 260-203-260H297z"/></font><font horiz-adv-x="2048" vert-origin-x="45" vert-origin-y="90" vert-adv-y="90"><font-face font-family="DejaVuLGCSans" units-per-em="2048" underline-position="-130" underline-thickness="90"/><glyph unicode="A" horiz-adv-x="1401" d="M700 1294 426 551h549m-389 942h229L1384 0h-210l-136 383H365L229 0H16z"/><glyph unicode="B" horiz-adv-x="1405" d="M403 713V166h324c109 0 189 23 242 68 52 45 78 113 78 206s-26 162-78 207c-53 44-133 66-242 66m-324 614V877h299c99 0 172 19 221 56 48 37 72 93 72 169 0 75-24 132-72 169-49 37-122 56-221 56m-501 166h516c154 0 273-32 356-96s125-155 125-273c0-91-21-164-64-218s-105-88-188-101c99-21 177-66 232-133 55-68 82-153 82-254 0-133-45-236-136-309S904 0 737 0H201z"/><glyph unicode="C" horiz-adv-x="1430" d="M1319 1378v-213c-68 63-140 111-217 142s-159 47-246 47c-171 0-301-52-392-156-91-105-136-256-136-453s45-347 136-451c91-105 221-157 392-157 87 0 169 16 246 47s149 79 217 142V115c-71-48-145-84-224-108S932-29 844-29c-226 0-404 69-534 208-130 138-195 327-195 566 0 240 65 429 195 568 130 138 308 207 534 207 89 0 174-12 253-35 79-24 153-60 222-107z"/><glyph unicode="D" horiz-adv-x="1577" d="M403 1327V166h244c206 0 357 47 453 140 95 93 143 241 143 442 0 200-48 347-143 440-96 93-247 139-453 139m-446 166h415c289 0 502-60 637-180 135-121 203-309 203-565 0-257-68-446-204-567S904 0 616 0H201z"/><glyph unicode="E" horiz-adv-x="1294" d="M201 1493h944v-170H403V881h711V711H403V170h760V0H201z"/><glyph unicode="G" horiz-adv-x="1587" d="M1219 213v401H889v166h530V139c-78-55-164-97-258-125-94-29-194-43-301-43-233 0-416 68-547 205-132 136-198 326-198 569 0 244 66 434 198 571 131 136 314 204 547 204 97 0 190-12 278-36 87-24 168-59 242-106v-215c-75 63-154 111-238 143s-172 48-265 48c-183 0-320-51-411-153-92-102-138-254-138-456 0-201 46-353 138-455 91-102 228-153 411-153 71 0 135 6 191 19 56 12 106 31 151 57z"/><glyph unicode="H" horiz-adv-x="1540" d="M201 1493h202V881h734v612h202V0h-202v711H403V0H201z"/><glyph unicode="I" horiz-adv-x="604" d="M201 1493h202V0H201z"/><glyph unicode="J" horiz-adv-x="604" d="M201 1493h202V104c0-180-34-311-102-392-69-81-179-122-330-122h-77v170h63c89 0 152 25 189 75s55 140 55 269z"/><glyph unicode="L" horiz-adv-x="1141" d="M201 1493h202V170h727V0H201z"/><glyph unicode="M" horiz-adv-x="1767" d="M201 1493h301L883 477l383 1016h301V0h-197v1311L985 287H782L397 1311V0H201z"/><glyph unicode="N" horiz-adv-x="1532" d="M201 1493h272l662-1249v1249h196V0h-272L397 1249V0H201z"/><glyph unicode="O" horiz-adv-x="1612" d="M807 1356c-147 0-263-55-349-164-87-109-130-258-130-447 0-188 43-337 130-446 86-109 202-164 349-164s263 55 349 164c85 109 128 258 128 446 0 189-43 338-128 447-86 109-202 164-349 164m0 164c209 0 377-70 502-210 125-141 188-329 188-565 0-235-63-423-188-563C1184 41 1016-29 807-29c-210 0-378 70-503 210-126 140-189 328-189 564s63 424 189 565c125 140 293 210 503 210z"/><glyph unicode="P" horiz-adv-x="1235" d="M403 1327V766h254c94 0 167 24 218 73s77 118 77 208c0 89-26 158-77 207s-124 73-218 73m-456 166h456c167 0 294-38 380-113 85-76 128-187 128-333 0-147-43-259-128-334-86-75-213-113-380-113H403V0H201z"/><glyph unicode="R" horiz-adv-x="1423" d="M909 700c43-15 86-46 127-94s82-114 123-198L1364 0h-217L956 383c-49 100-97 166-143 199-47 33-110 49-190 49H403V0H201v1493h456c171 0 298-36 382-107s126-179 126-323c0-94-22-172-65-234-44-62-108-105-191-129m-506 627V797h254c97 0 171 23 221 68 49 45 74 111 74 198s-25 153-74 198c-50 44-124 66-221 66z"/><glyph unicode="S" horiz-adv-x="1300" d="M1096 1444v-197c-77 37-149 64-217 82s-134 27-197 27c-110 0-195-21-254-64-60-43-90-103-90-182 0-66 20-116 60-149 39-34 114-61 225-82l122-25c151-29 262-79 334-151 71-73 107-170 107-291 0-145-48-254-145-329S801-29 614-29c-71 0-146 8-225 24-80 16-163 40-248 71v208c82-46 162-81 241-104s156-35 232-35c115 0 204 23 267 68s94 110 94 194c0 73-22 131-67 172s-119 72-222 93l-123 24c-151 30-260 77-327 141s-101 153-101 267c0 132 47 236 140 312s221 114 384 114c70 0 141-6 214-19s147-32 223-57z"/><glyph unicode="T" horiz-adv-x="1251" d="M-6 1493h1263v-170H727V0H524v1323H-6z"/><glyph unicode="U" horiz-adv-x="1499" d="M178 1493h203V586c0-160 29-275 87-345 58-71 152-106 282-106 129 0 223 35 281 106 58 70 87 185 87 345v907h203V561c0-195-48-342-144-441-97-99-239-149-427-149-189 0-331 50-427 149-97 99-145 246-145 441z"/><glyph unicode="V" horiz-adv-x="1401" d="M586 0 16 1493h211L700 236l474 1257h210L815 0z"/><glyph unicode="X" horiz-adv-x="1403" d="M129 1493h217l371-555 373 555h217L827 776 1339 0h-217L702 635 279 0H61l533 797z"/><glyph unicode="Y" horiz-adv-x="1251" d="M-4 1493h217l414-614 411 614h217L727 711V0H524v711z"/><glyph unicode="a" horiz-adv-x="1255" d="M702 563c-149 0-252-17-309-51s-86-92-86-174c0-65 22-117 65-155 43-39 101-58 175-58 102 0 184 36 246 109 61 72 92 168 92 288v41m184 76V0H885v170c-42-68-94-118-157-150-63-33-139-49-230-49-115 0-206 32-273 97-68 64-102 150-102 258 0 126 42 221 127 285 84 64 210 96 377 96h258v18c0 85-28 150-83 197-56 46-134 69-235 69-64 0-126-8-187-23s-119-38-175-69v170c67 26 133 46 196 59s125 19 185 19c162 0 283-42 363-126s120-211 120-382z"/><glyph unicode="b" horiz-adv-x="1300" d="M997 559c0 135-28 242-83 319-56 77-133 115-230 115s-174-38-229-115c-56-77-84-184-84-319s28-241 84-318c55-77 132-116 229-116s174 39 230 116c55 77 83 183 83 318M371 950c39 67 88 116 147 149 59 32 129 48 211 48 136 0 247-54 332-162s127-250 127-426-42-318-127-426S865-29 729-29c-82 0-152 16-211 49-59 32-108 81-147 148V0H186v1556h185z"/><glyph unicode="e" horiz-adv-x="1260" d="M1151 606v-90H305c8-127 46-223 115-289 68-67 163-100 285-100 71 0 139 9 206 26 66 17 132 43 197 78V57C1042 29 974 8 905-7S765-29 694-29c-179 0-320 52-424 156-105 104-157 245-157 422 0 183 50 329 149 437 99 107 232 161 400 161 151 0 270-48 358-145 87-97 131-229 131-396m-184 54c-1 101-29 181-84 241s-128 90-219 90c-103 0-185-29-246-87-62-58-98-140-107-245z"/><glyph unicode="g" horiz-adv-x="1300" d="M930 573c0 133-27 237-82 310S715 993 616 993s-175-37-230-110-83-177-83-310 28-236 83-309 131-110 230-110 177 37 232 110 82 176 82 309m184-434c0-191-42-332-127-425S773-426 598-426c-65 0-126 5-183 15-57 9-113 24-167 44v179c54-29 107-51 160-65s106-21 161-21c121 0 211 32 271 95s90 158 90 285v91c-38-66-87-115-146-148S654 0 571 0C434 0 323 52 239 157S113 400 113 573s42 312 126 417 195 157 332 157c83 0 154-16 213-49s108-82 146-148v170h184z"/><glyph unicode="h" horiz-adv-x="1298" d="M1124 676V0H940v670c0 106-21 185-62 238s-103 79-186 79c-99 0-178-32-235-95s-86-150-86-259V0H186v1556h185V946c44 67 96 118 156 151 59 33 128 50 206 50 129 0 226-40 292-119 66-80 99-197 99-352z"/><glyph unicode="i" horiz-adv-x="569" d="M193 1120h184V0H193m0 1556h184v-233H193z"/><glyph unicode="l" horiz-adv-x="569" d="M193 1556h184V0H193z"/><glyph unicode="m" horiz-adv-x="1995" d="M1065 905c46 83 101 144 165 183s139 59 226 59c117 0 207-41 270-122 63-82 95-198 95-349V0h-185v670c0 107-19 187-57 239s-96 78-174 78c-95 0-171-32-226-95s-83-150-83-259V0H911v670c0 108-19 188-57 240-38 51-97 77-176 77-94 0-169-32-224-95-55-64-83-150-83-259V0H186v1120h185V946c42 69 92 119 151 152s128 49 209 49 151-21 208-62 99-101 126-180z"/><glyph unicode="n" horiz-adv-x="1298" d="M1124 676V0H940v670c0 106-21 185-62 238s-103 79-186 79c-99 0-178-32-235-95s-86-150-86-259V0H186v1120h185V946c44 67 96 118 156 151 59 33 128 50 206 50 129 0 226-40 292-119 66-80 99-197 99-352z"/><glyph unicode="o" horiz-adv-x="1253" d="M627 991c-99 0-177-38-234-115s-86-183-86-317 29-239 86-316 135-116 234-116c98 0 176 39 233 116s86 183 86 316-29 238-86 316c-57 77-135 116-233 116m0 156c160 0 286-52 377-156s137-248 137-432c0-183-46-327-137-431C913 23 787-29 627-29c-161 0-286 52-377 157-91 104-137 248-137 431 0 184 46 328 137 432s216 156 377 156z"/><glyph unicode="r" horiz-adv-x="842" d="M842 948c-21 12-43 21-67 27-25 5-52 8-81 8-104 0-184-34-239-101-56-68-84-165-84-292V0H186v1120h185V946c39 68 89 119 151 152s137 49 226 49c13 0 27-1 42-2 15-2 32-5 51-8z"/><glyph unicode="s" horiz-adv-x="1067" d="M907 1087V913c-52 27-106 47-162 60s-114 20-174 20c-91 0-160-14-205-42-46-28-69-70-69-126 0-43 16-76 49-100 33-25 98-48 197-70l63-14c131-28 224-67 279-118s82-123 82-214c0-104-41-186-123-247-83-61-196-91-340-91-60 0-122 6-187 18-65 11-134 29-206 52v190c68-35 135-62 201-79 66-18 131-27 196-27 87 0 153 15 200 45 47 29 70 71 70 125 0 50-17 88-50 115-34 27-108 52-222 77l-64 15c-114 24-196 61-247 111-51 49-76 117-76 204 0 105 37 187 112 244s181 86 318 86c68 0 132-5 192-15s115-25 166-45z"/><glyph unicode="u" horiz-adv-x="1298" d="M174 442v678h184V449c0-106 21-185 62-238s103-80 186-80c99 0 178 32 236 95 57 63 86 150 86 259v635h184V0H928v172c-45-68-96-118-155-151S645-29 567-29C438-29 341 11 274 91S174 288 174 442z"/><glyph unicode="v" horiz-adv-x="1212" d="M61 1120h195l350-940 350 940h195L731 0H481z"/><glyph unicode="y" horiz-adv-x="1212" d="M659-104c-52-133-103-220-152-261s-115-61-198-61H162v154h108c51 0 90 12 118 36s59 81 93 170l33 84L61 1120h195l350-876 350 876h195z"/><glyph unicode="Â" horiz-adv-x="1401" d="M700 1294 426 551h549m-389 942h229L1384 0h-210l-136 383H365L229 0H16m590 1901h188l211-266H866l-166 178-166-178H395z"/><glyph unicode="É" horiz-adv-x="1294" d="M201 1493h944v-170H403V881h711V711H403V170h760V0H201m524 1899h185l-228-264H529z"/><glyph unicode="ç" horiz-adv-x="1126" d="M999 1077V905c-52 29-104 50-156 65-53 14-106 21-159 21-119 0-212-38-278-113-66-76-99-182-99-319s33-243 99-318c66-76 159-114 278-114 53 0 106 7 159 22 52 14 104 35 156 64V43C948 19 895 1 840-11S726-29 664-29c-169 0-303 53-402 159S113 379 113 559c0 183 50 326 151 431 100 105 237 157 412 157 57 0 112-6 166-17 54-12 106-30 157-53M739 0c37-41 64-79 82-114s27-69 27-101c0-59-20-104-60-134-40-31-99-46-178-46-31 0-60 2-89 6s-58 10-87 18v131c23-11 46-19 71-24s53-8 84-8c39 0 69 8 89 24s30 39 30 70c0 20-7 45-21 74-15 29-37 63-67 104z"/><glyph unicode="ô" horiz-adv-x="1253" d="M627 991c-99 0-177-38-234-115s-86-183-86-317 29-239 86-316 135-116 234-116c98 0 176 39 233 116s86 183 86 316-29 238-86 316c-57 77-135 116-233 116m0 156c160 0 286-52 377-156s137-248 137-432c0-183-46-327-137-431C913 23 787-29 627-29c-161 0-286 52-377 157-91 104-137 248-137 431 0 184 46 328 137 432s216 156 377 156m-74 491h148l245-376H807l-180 245-180-245H308z"/></font><font horiz-adv-x="2048" vert-origin-x="45" vert-origin-y="90" vert-adv-y="90"><font-face font-family="BitstreamVeraSans-Roman" units-per-em="2048" underline-position="-213" underline-thickness="143"/><glyph horiz-adv-x="651"/><glyph unicode="I" horiz-adv-x="604" d="M201 1493h202V0H201z"/><glyph unicode="L" horiz-adv-x="1141" d="M201 1493h202V170h727V0H201z"/><glyph unicode="X" horiz-adv-x="1403" d="M129 1493h217l371-555 373 555h217L827 776 1339 0h-217L702 635 279 0H61l533 797z"/><glyph unicode="a" horiz-adv-x="1255" d="M702 563c-149 0-252-17-309-51s-86-92-86-174c0-65 22-117 65-155 43-39 101-58 175-58 102 0 184 36 246 109 61 72 92 168 92 288v41m184 76V0H885v170c-42-68-94-118-157-150-63-33-139-49-230-49-115 0-206 32-273 97-68 64-102 150-102 258 0 126 42 221 127 285 84 64 210 96 377 96h258v18c0 85-28 150-83 197-56 46-134 69-235 69-64 0-126-8-187-23s-119-38-175-69v170c67 26 133 46 196 59s125 19 185 19c162 0 283-42 363-126s120-211 120-382z"/><glyph unicode="b" horiz-adv-x="1300" d="M997 559c0 135-28 242-83 319-56 77-133 115-230 115s-174-38-229-115c-56-77-84-184-84-319s28-241 84-318c55-77 132-116 229-116s174 39 230 116c55 77 83 183 83 318M371 950c39 67 88 116 147 149 59 32 129 48 211 48 136 0 247-54 332-162s127-250 127-426-42-318-127-426S865-29 729-29c-82 0-152 16-211 49-59 32-108 81-147 148V0H186v1556h185z"/><glyph unicode="c" horiz-adv-x="1126" d="M999 1077V905c-52 29-104 50-156 65-53 14-106 21-159 21-119 0-212-38-278-113-66-76-99-182-99-319s33-243 99-318c66-76 159-114 278-114 53 0 106 7 159 22 52 14 104 35 156 64V43C948 19 895 1 840-11S726-29 664-29c-169 0-303 53-402 159S113 379 113 559c0 183 50 326 151 431 100 105 237 157 412 157 57 0 112-6 166-17 54-12 106-30 157-53z"/><glyph unicode="e" horiz-adv-x="1260" d="M1151 606v-90H305c8-127 46-223 115-289 68-67 163-100 285-100 71 0 139 9 206 26 66 17 132 43 197 78V57C1042 29 974 8 905-7S765-29 694-29c-179 0-320 52-424 156-105 104-157 245-157 422 0 183 50 329 149 437 99 107 232 161 400 161 151 0 270-48 358-145 87-97 131-229 131-396m-184 54c-1 101-29 181-84 241s-128 90-219 90c-103 0-185-29-246-87-62-58-98-140-107-245z"/><glyph unicode="g" horiz-adv-x="1300" d="M930 573c0 133-27 237-82 310S715 993 616 993s-175-37-230-110-83-177-83-310 28-236 83-309 131-110 230-110 177 37 232 110 82 176 82 309m184-434c0-191-42-332-127-425S773-426 598-426c-65 0-126 5-183 15-57 9-113 24-167 44v179c54-29 107-51 160-65s106-21 161-21c121 0 211 32 271 95s90 158 90 285v91c-38-66-87-115-146-148S654 0 571 0C434 0 323 52 239 157S113 400 113 573s42 312 126 417 195 157 332 157c83 0 154-16 213-49s108-82 146-148v170h184z"/><glyph unicode="i" horiz-adv-x="569" d="M193 1120h184V0H193m0 1556h184v-233H193z"/><glyph unicode="l" horiz-adv-x="569" d="M193 1556h184V0H193z"/><glyph unicode="n" horiz-adv-x="1298" d="M1124 676V0H940v670c0 106-21 185-62 238s-103 79-186 79c-99 0-178-32-235-95s-86-150-86-259V0H186v1120h185V946c44 67 96 118 156 151 59 33 128 50 206 50 129 0 226-40 292-119 66-80 99-197 99-352z"/><glyph unicode="o" horiz-adv-x="1253" d="M627 991c-99 0-177-38-234-115s-86-183-86-317 29-239 86-316 135-116 234-116c98 0 176 39 233 116s86 183 86 316-29 238-86 316c-57 77-135 116-233 116m0 156c160 0 286-52 377-156s137-248 137-432c0-183-46-327-137-431C913 23 787-29 627-29c-161 0-286 52-377 157-91 104-137 248-137 431 0 184 46 328 137 432s216 156 377 156z"/><glyph unicode="r" horiz-adv-x="842" d="M842 948c-21 12-43 21-67 27-25 5-52 8-81 8-104 0-184-34-239-101-56-68-84-165-84-292V0H186v1120h185V946c39 68 89 119 151 152s137 49 226 49c13 0 27-1 42-2 15-2 32-5 51-8z"/><glyph unicode="s" horiz-adv-x="1067" d="M907 1087V913c-52 27-106 47-162 60s-114 20-174 20c-91 0-160-14-205-42-46-28-69-70-69-126 0-43 16-76 49-100 33-25 98-48 197-70l63-14c131-28 224-67 279-118s82-123 82-214c0-104-41-186-123-247-83-61-196-91-340-91-60 0-122 6-187 18-65 11-134 29-206 52v190c68-35 135-62 201-79 66-18 131-27 196-27 87 0 153 15 200 45 47 29 70 71 70 125 0 50-17 88-50 115-34 27-108 52-222 77l-64 15c-114 24-196 61-247 111-51 49-76 117-76 204 0 105 37 187 112 244s181 86 318 86c68 0 132-5 192-15s115-25 166-45z"/><glyph unicode="u" horiz-adv-x="1298" d="M174 442v678h184V449c0-106 21-185 62-238s103-80 186-80c99 0 178 32 236 95 57 63 86 150 86 259v635h184V0H928v172c-45-68-96-118-155-151S645-29 567-29C438-29 341 11 274 91S174 288 174 442z"/><glyph unicode="è" horiz-adv-x="1260" d="M1151 606v-90H305c8-127 46-223 115-289 68-67 163-100 285-100 71 0 139 9 206 26 66 17 132 43 197 78V57C1042 29 974 8 905-7S765-29 694-29c-179 0-320 52-424 156-105 104-157 245-157 422 0 183 50 329 149 437 99 107 232 161 400 161 151 0 270-48 358-145 87-97 131-229 131-396m-184 54c-1 101-29 181-84 241s-128 90-219 90c-103 0-185-29-246-87-62-58-98-140-107-245m195 979 282-374H635l-326 374z"/></font><font horiz-adv-x="2048" vert-origin-x="45" vert-origin-y="90" vert-adv-y="90"><font-face font-family="BitstreamVeraSans-Oblique" units-per-em="2048" underline-position="-213" underline-thickness="143"/><glyph unicode="a" horiz-adv-x="1255" d="M1100 639 975 0H791l34 170C771 103 710 54 641 21S495-29 410-29c-95 0-173 29-234 88-61 58-92 133-92 224 0 131 52 234 157 310 104 76 248 114 431 114h256l10 49c1 5 2 11 3 18 1 6 1 16 1 29 0 59-24 106-72 139-49 33-117 49-204 49-60 0-121-8-184-23s-128-38-195-69l32 170c69 26 137 46 204 59 66 13 130 19 192 19 132 0 233-29 302-86s103-141 103-250c0-22-2-48-5-77-3-30-8-62-15-95m-199-76H717c-151 0-262-20-334-60-73-41-109-103-109-188 0-59 19-105 56-138s88-50 153-50c100 0 187 36 262 108 75 71 124 167 148 287z"/><glyph unicode="g" horiz-adv-x="1300" d="m1221 1120-191-981C993-51 923-193 820-286c-104-93-244-140-419-140-65 0-125 5-180 15-55 9-107 24-155 44l34 179c45-29 93-51 144-65s105-21 162-21c117 0 213 32 288 96 75 63 124 155 148 274l16 84C807 121 747 77 679 46S538 0 459 0C346 0 257 38 192 113S94 291 94 422c0 103 20 205 59 304s95 186 166 263c47 51 103 90 166 117s128 41 197 41c75 0 141-17 197-52s98-85 125-149l32 174m-92-411c0 91-21 161-64 210s-103 74-182 74c-49 0-95-10-139-29s-82-46-113-81c-51-57-90-125-118-202-29-78-43-158-43-241 0-92 22-163 65-212s104-74 185-74c117 0 214 53 292 159 78 105 117 237 117 396z"/><glyph unicode="i" horiz-adv-x="569" d="M375 1556h184l-45-233H330m-39-203h184L256 0H72z"/><glyph unicode="p" horiz-adv-x="1300" d="M1016 690c0 98-21 173-64 225s-104 78-184 78c-55 0-107-14-156-42-50-28-94-69-133-122-38-53-68-116-91-191s-34-149-34-222c0-93 21-165 64-215 43-51 103-76 182-76 58 0 112 14 162 41 49 27 92 67 127 119 38 55 69 119 92 193s35 145 35 212M446 950c49 65 108 114 175 147s141 50 223 50c115 0 204-37 267-112s95-181 95-316c0-111-20-216-59-316-39-101-96-191-170-270-49-53-105-93-167-120-62-28-127-42-196-42-79 0-146 17-200 50s-94 82-121 147L178-426H-6l301 1546h184z"/></font>
</defs>
</svg>
